ML
     
  Уважаемый Гость!
Вы можете поддержать проект и зарегистрироваться у наших партнеров - онлайн-стратегия MyLands. При регистрации в игре Вы получите код, который сможете активировать после регистрации на pirat.ca и получить 1000 дублонов.

Ваш код:
ca44e9295b9b8527ba1c339c20494f70782efea6
 
     

Байки Митяя / Серии 1-20 из 20 (Алексей Кирющенко) [2012, комедия, DVDRip]

Ответить на тему
 
Автор
Сообщение

Пост 20-Мар-2012 00:07

[Q] 

TRACHH

Штурман

-Байки Митяя-- Год выпуска: 2012
Страна: Украина, Квартал-95
Жанр: Комедия
Продолжительность: 20 x ~ 00:27:00
Режиссер: Алексей Кирющенко
Продюсер: Владимир Зеленский, Андрей Яковлев, Сергей Шефир
Сценарий: Андрей Яковлев, Андрей Ильков, Алексей Жук
Оператор: Сергей Кошель
В ролях: Николай Добрынин,Алексей Смолка,Михаил Романов,Виктор Андриенко,Виктор Сарайкин,Александр Игнатуша,Евгений Кошевой,Егор Крутоголов,Юрий Крапов,Ольга Радчук
Премьера (мир): 10 февраля 2012
Премьера (РФ): 6 февраля 2012
Релиз на DVD: 13 марта 2012, «Парадиз Видео»


Митяй иногда слабохарактерный, иногда ленивый, но всегда неисправимый оптимист и романтик. Эти черты его характера - единственное богатство, нажитое им за все время жизни в поселке городского типа Кучугуры.
Каждый раз, попадая в очередную неразрешимую житейскую ситуацию, Митяй, дабы выкрутиться из положения, рассказывает собеседнику правдивую историю из своей жизни, или, если угодно, байку. Но байка – она ведь на то и есть байка, что даже правда в ней смотрится несколько утрированной и приукрашенной.

Качество: DVDRip
Озвучивание: Не требуется
Формат: AVI
Видео кодек: XviD
Аудио кодек: АС3
Видео: XviD, ~ 1750 Кбит/с, 720x400 25.000 fps
Аудио: АС3, 2 ch, 192 Кбит/с (1-10 серии), 256 Кбит/с (11-20 серии)
-- --


General
Complete name : F:\Видео\Сериалы\Bajki.Mitjaja.(01-20.serii.iz.20).2011.XviD.DVDRip.ramzesII\Bajki.Mitjaja.(01.serija.iz.20).2011.XviD.DVDRip.ramzesII.avi
Format : AVI
Format/Info : Audio Video Interleave
File size : 382 MiB
Duration : 27mn 23s
Overall bit rate : 1 952 Kbps
Writing application : VirtualDubModRus 1.5.10.2 (build 2540/release)
Writing library : VirtualDubMod build 2540/release
Video
ID : 0
Format : MPEG-4 Visual
Format profile : [email protected]
Format settings, BVOP : No
Format settings, QPel : No
Format settings, GMC : No warppoints
Format settings, Matrix : Default (H.263)
Codec ID : XVID
Codec ID/Hint : XviD
Duration : 27mn 23s
Bit rate : 1 750 Kbps
Width : 720 pixels
Height : 400 pixels
Display aspect ratio : 16:9
Frame rate : 25.000 fps
Color space : YUV
Chroma subsampling : 4:2:0
Bit depth : 8 bits
Scan type : Progressive
Compression mode : Lossy
Bits/(Pixel*Frame) : 0.243
Stream size : 343 MiB (90%)
Writing library : XviD 64
Audio
ID : 1
Format : AC-3
Format/Info : Audio Coding 3
Mode extension : CM (complete main)
Codec ID : 2000
Duration : 27mn 23s
Bit rate mode : Constant
Bit rate : 192 Kbps
Channel(s) : 2 channels
Channel positions : Front: L R
Sampling rate : 48.0 KHz
Bit depth : 16 bits
Compression mode : Lossy
Stream size : 37.6 MiB (10%)
Alignment : Aligned on interleaves
Interleave, duration : 40 ms (1.00 video frame)
Interleave, preload duration : 512 ms
Download / Скачать

Хотите скачать бесплатно? Зарегистрируйтесь на сайте (ссылка на регистрацию). Pirat.ca - самый быстрый торрент трекер в рунете!

Как скачивать  ·   Что такое торрент  ·   Рейтинг и ограничения

Пост 20-Мар-2012 08:18 (спустя 8 часов)

Топик был перенесен из форума Сериалы в форум Отечественные сериалы

gEmOkPaT
 

abc7

Гроза морей

464

Пост 20-Мар-2012 19:39 (спустя 19 часов)

[Q] 

[Профиль]  [ЛС] 

Тошик

Морской Волк

Пост 18-Июн-2012 12:50 (спустя 2 месяца 28 дней)

[Q] 

[Профиль]  [ЛС] 

SBalykov

Корсар

1452

Пост 11-Июл-2012 15:59 (спустя 23 дня)

[Q] 

Прикольно...

_________________
Never put off till tomorrow what can be done after tomorrow...
S.Balykov
[Профиль]  [ЛС] 

Voland57

Корсар

Пост 12-Авг-2012 15:28 (спустя 1 месяц)

[Q] 

[Профиль]  [ЛС] 

maksimum73

Корсар

Пост 05-Фев-2013 14:22 (спустя 5 месяцев 23 дня)

[Q] 

а по моему перебор, заврался Митяй и что самое интересное ему верят
[Профиль]  [ЛС] 

proti

Лоцман

Пост 25-Апр-2013 22:06 (спустя 2 месяца 20 дней)

[Q] 

[Профиль]  [ЛС] 
Показать сообщения:    
Ответить на тему

Текущее время: Сегодня 16:16

Часовой пояс: GMT + 4



Вы не можете начинать темы
Вы не можете отвечать на сообщения
Вы не можете редактировать свои сообщения
Вы не можете удалять свои сообщения
Вы не можете голосовать в опросах
Вы не можете прикреплять файлы к сообщениям
Вы не можете скачивать файлы

▼ Вниз