ML
     
  Уважаемый Гость!
Вы можете поддержать проект и зарегистрироваться у наших партнеров - онлайн-стратегия MyLands. При регистрации в игре Вы получите код, который сможете активировать после регистрации на pirat.ca и получить 1000 дублонов.

Ваш код:
e6008d9811a0b6a1393c3dc51ecd7bc35637bc21
 
     

Робинзон / Сезон: 1 Серии: 1-8 из 8 (Сергей Бобров) [2011, Драма, DVDRip]

Ответить на тему
 
Автор
Сообщение

Пост 20-Мар-2012 17:42

[Q] 

Yrets

Флибустьер

Робинзон / Сезон: 1 Серии: 1-8 из 8 (Сергей Бобров) [2011, Драма, DVDRip]
Год выпуска: 2011
Мировая премьера: 19 марта 2012
Российская премьера: 19 марта 2012
Производство: Россия, Всемирные Русские Студии(RWS)
Жанр: Драма
Продолжительность серии: 00:47:43
Перевод: Не требуется [не требуется]
Оригинальный аудиопоток: русский
Субтитры: отсутствуют
Режиссер: Сергей Бобров
В ролях
Игорь Петренко, Агния Дитковските, Светлана Ходченкова, Александр Тютин, Михаил Ефремов, Александр Баширов, Мария Миронова, Игорь Лифанов, Юрий Кузнецов, Жанна Эппле
Описание
Действие фильма «Робинзон» начинается в 1985 году. В маленьком северном городке живут трое мальчишек, мечтающих о карьере офицеров ВМФ — Сашка Робертсон, Лешка Балунов и Вовка Титов.
Спустя годы, когда друзья Сашка, Лешка и Вовка заканчивали школу, военная служба многим уже не казалась столь престижной, ценности менялись, а подлодки ржавели…
Маленький северный городок может быть отправной точкой для подводных лодок, уходящих в открытое море, или конечным пунктом наркотрафика, началом тысячи дорог или тупиком. Все зависит от выбора, который сделают герои.
Источник/Качество: DVDRip
Формат: AVI
Видео кодек: XviD
Аудио кодек: MP3
Видео: 720x400 (1.80:1), 25 fps, XviD MPEG-4 ~1872 kbps avg, 0.26 bit/pixel
Аудио: 48 kHz, MPEG Layer 3, 2 ch, ~128.00 kbps avg
Формат : AVI
Формат/Информация : Audio Video Interleave
Размер файла : 702 Мбайт
Продолжительность : 48 м.
Общий поток : 2010 Кбит/сек
Программа кодирования : VirtualDubMod 1.5.10.3 | www.virtualdub-fr.org || (build 2550/release)
Библиотека кодирования : VirtualDubMod build 2550/release
Видео
Идентификатор : 0
Формат : MPEG-4 Visual
Профиль формата : Advanced [email protected]
Параметр BVOP формата : 2
Параметр QPel формата : Нет
Параметр GMC формата : Без точки перехода
Параметр матрицы формата : Выборочная
Режим смешивания : Сжатый битовый поток
Идентификатор кодека : XVID
Идентификатор кодека/Подсказка : XviD
Продолжительность : 48 м.
Битрейт : 1872 Кбит/сек
Ширина : 720 пикселей
Высота : 400 пикселей
Соотношение сторон : 16:9
Частота кадров : 25,000 кадров/сек
Цветовое пространство : YUV
Субдискретизация насыщенности : 4:2:0
Битовая глубина : 8 бит
Тип развёртки : Прогрессивная
Метод сжатия : С потерями
Бит/(Пиксели*Кадры) : 0.260
Размер потока : 654 Мбайт (93%)
Библиотека кодирования : XviD 58
Аудио
Идентификатор : 1
Формат : MPEG Audio
Версия формата : Version 1
Профиль формата : Layer 3
Режим : Joint stereo
Расширение режима : MS Stereo
Идентификатор кодека : 55
Идентификатор кодека/Подсказка : MP3
Продолжительность : 48 м.
Вид битрейта : Постоянный
Битрейт : 128 Кбит/сек
Каналы : 2 канала
Частота : 48,0 КГц
Метод сжатия : С потерями
Размер потока : 44,7 Мбайт (6%)
Выравнивание : Разделение по промежуткам
Продолжительность промежутка : 40 мс. (1,00 видеокадр)
Время предзагрузки промежутка : 500 мс.
Download / Скачать

Хотите скачать бесплатно? Зарегистрируйтесь на сайте (ссылка на регистрацию). Pirat.ca - самый быстрый торрент трекер в рунете!

Как скачивать  ·   Что такое торрент  ·   Рейтинг и ограничения



Последний раз редактировалось: Yrets (2012-03-21 08:56), всего редактировалось 3 раз(а)

Пост 21-Мар-2012 10:23 (спустя 16 часов)

Топик был перенесен из форума Сериалы в форум Отечественные сериалы

gEmOkPaT
 

rezjus

Корсар

Пост 23-Мар-2012 21:10 (спустя 3 дня)

[Q] 

Спасибо.
[Профиль]  [ЛС] 

lexx

Корсар

129

Пост 28-Мар-2012 21:34 (спустя 5 дней)

[Q] 

[Профиль]  [ЛС] 

vovan200976

Флибустьер

Пост 31-Авг-2013 00:32 (спустя 1 год 5 месяцев)

[Q] 

На любителя Пиратка рулез!!! Лови бочку
[Профиль]  [ЛС] 

cemenn3

Штурман

Пост 01-Сен-2013 23:30 (спустя 1 день 22 часа)

[Q] 

Пиратка рулит! Лови бочку
[Профиль]  [ЛС] 

georgost

Юнга

Пост 09-Сен-2013 14:04 (спустя 7 дней)

[Q] 

Спасибо
[Профиль]  [ЛС] 

CHARLI2236

1097

Пост 12-Сен-2013 12:31 (спустя 2 дня 22 часа)

[Q] 

подключусь AntiZip 24

_________________
[Профиль]  [ЛС] 
Показать сообщения:    
Ответить на тему

Текущее время: Сегодня 02:00

Часовой пояс: GMT + 4



Вы не можете начинать темы
Вы не можете отвечать на сообщения
Вы не можете редактировать свои сообщения
Вы не можете удалять свои сообщения
Вы не можете голосовать в опросах
Вы не можете прикреплять файлы к сообщениям
Вы не можете скачивать файлы

▼ Вниз