ML
     
  Уважаемый Гость!
Вы можете поддержать проект и зарегистрироваться у наших партнеров - онлайн-стратегия MyLands. При регистрации в игре Вы получите код, который сможете активировать после регистрации на pirat.ca и получить 1000 дублонов.

Ваш код:
cc3be08b7507661c03e0a2f582d0da3a659ea55a
 
     

Петр Первый. Завещание (Серии: 1-4 серии из 4) (Владимир Бортко) [2011 г., Историческая драма, DVDRip]

Ответить на тему
 
Автор
Сообщение

Пост 21-Мар-2012 16:06

[Q] 

Znoi

Флибустьер

-Петр Первый. Завещание (1-4 серии из 4)
--Год выпуска: 2011
Мировая премьера: 14 мая 2011
Дата выхода DVD: 2 июня 2011
Производство: Россия, 2Б2, Ленфильм
Жанр: Историческая драма
Продолжительность серии:4 х ~ 00:55:00--Перевод: Не требуется
Субтитры: отсутствуют--Режиссер: Владимир Бортко--В ролях
Александр Балуев, Сергей Маковецкий, Сергей Шакуров, Александр Филиппенко, Елизавета Боярская, Михаил Боярский, Анна Ковальчук, Ирина Розанова, Александр Баширов, Валерий Соловьев, Валерий Гришко, Максим Радугин, Игорь Головин, Людмила Шевель, Владимир Матвеев, Галина Жданова--Описание
По мотивам романа Даниила Гранина «Вечера с Петром Великим». Зима 1721 года, Санкт-Петербург. Перешагнувший порог пятидесятилетия русский царь Петр Алексеевич во время экзекуции над очередным недобросовестным исполнителем своей воли встречает двадцатилетнюю дочь союзника в войне с турками, молдавского господаря Дмитрия Кантемира Марию, которую знал когда-то еще маленькой девочкой. За плечами у пожилого императора создание российского флота, реформа армии, учреждение Сената и Синода, другие грандиозные преобразования, им было одержано много славных побед над врагами России, он женат на Марте Скавронской, которая скоро должна стать императрицей Екатериной I. Несмотря на все это, самодержец российский, государственный муж, полководец и реформатор влюбился в Марию, которая была моложе его на тридцать лет. Через полгода Петр отправится в Каспийский поход, в котором сопровождать его будут и Екатерина, и Мария. Во время этого похода станет известно, что молдавская княжна носит под сердцем ребенка, отец которого – царь Петр Великий. Мария получит все шансы стать новой императрицей, чего, конечно же, не могут допустить ни царица, ни ее приближенные.-- --Источник/Качество: DVDRip
Формат: MP4
Видео кодек: XviD
Аудио кодек: AC3
Видео: XviD, 1517 Кбит/с, 720x416 пикс, 25.000 кадров/сек
Аудио: AC3, 6 ch, 448 Кбит/с, 48,0 КГц
General
Complete name : D:\Petr.Pervyj.Zaveshanie.(1-4.serii.iz.4).2011.XviD.DVDRip\Petr.Pervyj.Zaveshanie.(1.serija.iz.4).2011.XviD.DVDRip.avi
Format : AVI
Format/Info : Audio Video Interleave
File size : 773 MiB
Duration : 54mn 42s
Overall bit rate : 1 975 Kbps
Movie name : Petr.Pervyj.Zaveshanie.(1.seriy.iz.4).2011.XviD.DVDRip.AC3_SergV
Writing application : VirtualDubMod 1.5.10.3 | www.virtualdub-fr.org || (build 2550/release)
Comment : Рип от SergV
Video
ID : 0
Format : MPEG-4 Visual
Format profile : Advanced [email protected]
Format settings, BVOP : 3
Format settings, QPel : No
Format settings, GMC : No warppoints
Format settings, Matrix : Default (MPEG)
Codec ID : XVID
Codec ID/Hint : XviD
Duration : 54mn 42s
Bit rate : 1 517 Kbps
Width : 720 pixels
Height : 416 pixels
Display aspect ratio : 16:9
Frame rate : 25.000 fps
Color space : YUV
Chroma subsampling : 4:2:0
Bit depth : 8 bits
Scan type : Progressive
Compression mode : Lossy
Bits/(Pixel*Frame) : 0.203
Stream size : 594 MiB (77%)
Writing library : XviD 64
Audio
ID : 1
Format : AC-3
Format/Info : Audio Coding 3
Mode extension : CM (complete main)
Codec ID : 2000
Duration : 54mn 42s
Bit rate mode : Constant
Bit rate : 448 Kbps
Channel(s) : 6 channels
Channel positions : Front: L C R, Side: L R, LFE
Sampling rate : 48.0 KHz
Bit depth : 16 bits
Compression mode : Lossy
Stream size : 175 MiB (23%)
Alignment : Split accross interleaves
Interleave, duration : 40 ms (1.00 video frame)
Interleave, preload duration : 500 ms
General
Complete name : D:\Petr.Pervyj.Zaveshanie.(1-4.serii.iz.4).2011.XviD.DVDRip\Petr.Pervyj.Zaveshanie.(2.serija.iz.4).2011.XviD.DVDRip.avi
Format : AVI
Format/Info : Audio Video Interleave
File size : 795 MiB
Duration : 56mn 18s
Overall bit rate : 1 975 Kbps
Movie name : Petr.Pervyj.Zaveshanie.(2.seriy.iz.4).2011.XviD.DVDRip.AC3_SergV
Writing application : VirtualDubMod 1.5.10.3 | www.virtualdub-fr.org || (build 2550/release)
Comment : Рип от SergV
Video
ID : 0
Format : MPEG-4 Visual
Format profile : Advanced [email protected]
Format settings, BVOP : 3
Format settings, QPel : No
Format settings, GMC : No warppoints
Format settings, Matrix : Default (MPEG)
Codec ID : XVID
Codec ID/Hint : XviD
Duration : 56mn 18s
Bit rate : 1 517 Kbps
Width : 720 pixels
Height : 416 pixels
Display aspect ratio : 16:9
Frame rate : 25.000 fps
Color space : YUV
Chroma subsampling : 4:2:0
Bit depth : 8 bits
Scan type : Progressive
Compression mode : Lossy
Bits/(Pixel*Frame) : 0.203
Stream size : 611 MiB (77%)
Writing library : XviD 64
Audio
ID : 1
Format : AC-3
Format/Info : Audio Coding 3
Mode extension : CM (complete main)
Codec ID : 2000
Duration : 56mn 17s
Bit rate mode : Constant
Bit rate : 448 Kbps
Channel(s) : 6 channels
Channel positions : Front: L C R, Side: L R, LFE
Sampling rate : 48.0 KHz
Bit depth : 16 bits
Compression mode : Lossy
Stream size : 180 MiB (23%)
Alignment : Split accross interleaves
Interleave, duration : 40 ms (1.00 video frame)
Interleave, preload duration : 500 ms
General
Complete name : D:\Petr.Pervyj.Zaveshanie.(1-4.serii.iz.4).2011.XviD.DVDRip\Petr.Pervyj.Zaveshanie.(3.serija.iz.4).2011.XviD.DVDRip.avi
Format : AVI
Format/Info : Audio Video Interleave
File size : 810 MiB
Duration : 57mn 19s
Overall bit rate : 1 975 Kbps
Movie name : Petr.Pervyj.Zaveshanie.(3.seriy.iz.4).2011.XviD.DVDRip.AC3_SergV
Writing application : VirtualDubMod 1.5.10.3 | www.virtualdub-fr.org || (build 2550/release)
Comment : Рип от SergV
Video
ID : 0
Format : MPEG-4 Visual
Format profile : Advanced [email protected]
Format settings, BVOP : 3
Format settings, QPel : No
Format settings, GMC : No warppoints
Format settings, Matrix : Default (MPEG)
Codec ID : XVID
Codec ID/Hint : XviD
Duration : 57mn 19s
Bit rate : 1 517 Kbps
Width : 720 pixels
Height : 416 pixels
Display aspect ratio : 16:9
Frame rate : 25.000 fps
Color space : YUV
Chroma subsampling : 4:2:0
Bit depth : 8 bits
Scan type : Progressive
Compression mode : Lossy
Bits/(Pixel*Frame) : 0.203
Stream size : 622 MiB (77%)
Writing library : XviD 64
Audio
ID : 1
Format : AC-3
Format/Info : Audio Coding 3
Mode extension : CM (complete main)
Codec ID : 2000
Duration : 57mn 19s
Bit rate mode : Constant
Bit rate : 448 Kbps
Channel(s) : 6 channels
Channel positions : Front: L C R, Side: L R, LFE
Sampling rate : 48.0 KHz
Bit depth : 16 bits
Compression mode : Lossy
Stream size : 184 MiB (23%)
Alignment : Split accross interleaves
Interleave, duration : 40 ms (1.00 video frame)
Interleave, preload duration : 500 ms
General
Complete name : D:\Petr.Pervyj.Zaveshanie.(1-4.serii.iz.4).2011.XviD.DVDRip\Petr.Pervyj.Zaveshanie.(4.serija.iz.4).2011.XviD.DVDRip.avi
Format : AVI
Format/Info : Audio Video Interleave
File size : 742 MiB
Duration : 52mn 30s
Overall bit rate : 1 975 Kbps
Movie name : Petr.Pervyj.Zaveshanie.(4.seriy.iz.4).2011.XviD.DVDRip.AC3_SergV
Writing application : VirtualDubMod 1.5.10.3 | www.virtualdub-fr.org || (build 2550/release)
Comment : Рип от SergV
Video
ID : 0
Format : MPEG-4 Visual
Format profile : Advanced [email protected]
Format settings, BVOP : 3
Format settings, QPel : No
Format settings, GMC : No warppoints
Format settings, Matrix : Default (MPEG)
Codec ID : XVID
Codec ID/Hint : XviD
Duration : 52mn 30s
Bit rate : 1 517 Kbps
Width : 720 pixels
Height : 416 pixels
Display aspect ratio : 16:9
Frame rate : 25.000 fps
Color space : YUV
Chroma subsampling : 4:2:0
Bit depth : 8 bits
Scan type : Progressive
Compression mode : Lossy
Bits/(Pixel*Frame) : 0.203
Stream size : 570 MiB (77%)
Writing library : XviD 64
Audio
ID : 1
Format : AC-3
Format/Info : Audio Coding 3
Mode extension : CM (complete main)
Codec ID : 2000
Duration : 52mn 30s
Bit rate mode : Constant
Bit rate : 448 Kbps
Channel(s) : 6 channels
Channel positions : Front: L C R, Side: L R, LFE
Sampling rate : 48.0 KHz
Bit depth : 16 bits
Compression mode : Lossy
Stream size : 168 MiB (23%)
Alignment : Split accross interleaves
Interleave, duration : 40 ms (1.00 video frame)
Interleave, preload duration : 500 ms
Download / Скачать

Хотите скачать бесплатно? Зарегистрируйтесь на сайте (ссылка на регистрацию). Pirat.ca - самый быстрый торрент трекер в рунете!

Как скачивать  ·   Что такое торрент  ·   Рейтинг и ограничения

vitrina22

3157

Пост 21-Мар-2012 18:26 (спустя 2 часа 19 минут)

[Q] 

[Профиль]  [ЛС] 

Пост 21-Мар-2012 18:26 (спустя 10 секунд)

Топик был перенесен из форума Сериалы в форум Отечественные сериалы

gEmOkPaT
 

agafonkin.62

Морской Волк

Пост 23-Июл-2012 15:09 (спустя 4 месяца 1 день)

[Q] 

Просьба подключиться к раздаче, совсем не идет
[Профиль]  [ЛС] 

okorm

889

Пост 20-Фев-2013 07:11 (спустя 6 месяцев 27 дней)

[Q] 

[Профиль]  [ЛС] 

Volodko

Корсар

Пост 05-Апр-2014 18:25 (спустя 1 год 1 месяц)

[Q] 

Прекрасный актёрский состав. Надеюсь, сценарий стоит таких актёров. Автору респект!!!
[Профиль]  [ЛС] 

Гатар

Морской Волк

130

Пост 22-Май-2014 19:36 (спустя 1 месяц 17 дней)

[Q] 

Помогу с раздачей.
[Профиль]  [ЛС] 

h5n1

Гроза морей

483

Пост 06-Июн-2014 10:09 (спустя 14 дней)

[Q] 

случайно наткнулся, не смотрел))) Лови бочку

_________________
«Мы находимся здесь, чтобы внести свой вклад в этот мир. Иначе зачем мы здесь?» S.Jobs
[Профиль]  [ЛС] 
Показать сообщения:    
Ответить на тему

Текущее время: Сегодня 05:07

Часовой пояс: GMT + 4



Вы не можете начинать темы
Вы не можете отвечать на сообщения
Вы не можете редактировать свои сообщения
Вы не можете удалять свои сообщения
Вы не можете голосовать в опросах
Вы не можете прикреплять файлы к сообщениям
Вы не можете скачивать файлы

▼ Вниз