ML
     
  Уважаемый Гость!
Вы можете поддержать проект и зарегистрироваться у наших партнеров - онлайн-стратегия MyLands. При регистрации в игре Вы получите код, который сможете активировать после регистрации на pirat.ca и получить 1000 дублонов.

Ваш код:
e6008d9811a0b6a1393c3dc51ecd7bc35637bc21
 
     

Сонька. Продолжение легенды (Сезон: 2 / Серии: 1-14 из 14) (Виктор Мережко) [2010 г., драма, DVDRip]

Ответить на тему
 
Автор
Сообщение

Пост 24-Мар-2012 21:37

[Q] 

Gekon86ru

Морской Волк

Сонька. Продолжение легенды
(Сезон: 2 / Серии: 1-14 из 14)
Год выпуска: 2010
Мировая премьера: 6 марта 2010
Российская премьера: 6 марта 2010
Дата выхода DVD: 2 ноября 2010
Производство: Россия
Жанр: драма
Продолжительность серии: 14 x ~ 00:45:00
Перевод: Не требуется
Режиссер: Виктор Мережко
В ролях
Анастасия Микульчина
Дмитрий Аверин
Игорь Ботвин
Наталья Варфоломеева
Михаил Елисеев
Станислав Концевич
Владимир Кошевой
Роман Мадянов
Андрей Мартынов
Владимир Матвеев
Описание
Время действия — 1905 год, может, самый трагический год в Российский истории. Поражение в русско-японской войне, неверие в будущее, общий упадок морали и нравственности; декаданс становится модой, модой также становится употребление опиума. Террористы, бомбисты, революционеры, еврейские погромы, отчаяние, висящее в воздухе…
На таком фоне развивается драма Соньки и ее дочерей, Таббы и Михелины. Если Табба — знаменитая прима оперетты Санкт-Петеребурга, то младшая Михелина промышляет воровством вместе с матерью. Все трое переживают истинную драму: от надежды на лучшее до полного краха.
Качество: DVDRip
Формат: AVI
Видео кодек: DivX
Аудио кодек: MP3
Видео: 720x384 (1.88:1), 25 fps, DivX Codec 5.x or 6.x ~1533 kbps avg, 0.22 bit/pixel
Аудио: 48 kHz, MPEG Layer 3, 2 ch, ~128.00 kbps avg
Формат : AVI
Формат/Информация : Audio Video Interleave
Размер файла : 529 Мбайт
Продолжительность : 44 м.
Общий поток : 1671 Кбит/сек
Программа кодирования : FairUse Wizard - http://fairusewizard.com
Библиотека кодирования : The best and REALLY easy backup tool
Видео
Идентификатор : 0
Формат : MPEG-4 Visual
Параметр BVOP формата : 1
Параметр QPel формата : Нет
Параметр GMC формата : Без точки перехода
Параметр матрицы формата : Default (H.263)
Режим смешивания : Сжатый битовый поток
Идентификатор кодека : DX50
Идентификатор кодека/Подсказка : DivX 5
Продолжительность : 44 м.
Битрейт : 1533 Кбит/сек
Ширина : 720 пикселей
Высота : 384 пикселя
Соотношение сторон : 1,875
Частота кадров : 25,000 кадров/сек
Цветовое пространство : YUV
Субдискретизация насыщенности : 4:2:0
Битовая глубина : 8 бит
Тип развёртки : Прогрессивная
Метод сжатия : С потерями
Бит/(Пиксели*Кадры) : 0.222
Размер потока : 486 Мбайт (92%)
Библиотека кодирования : DivX 6.8.5 (UTC 2009-08-20)
Аудио
Идентификатор : 1
Формат : MPEG Audio
Версия формата : Version 1
Профиль формата : Layer 3
Режим : Joint stereo
Расширение режима : MS Stereo
Идентификатор кодека : 55
Идентификатор кодека/Подсказка : MP3
Продолжительность : 44 м.
Вид битрейта : Постоянный
Битрейт : 128 Кбит/сек
Каналы : 2 канала
Частота : 48,0 КГц
Метод сжатия : С потерями
Размер потока : 40,5 Мбайт (8%)
Выравнивание : Соединение по промежуткам
Продолжительность промежутка : 40 мс. (1,00 видеокадр)
Время предзагрузки промежутка : 504 мс.
Библиотека кодирования : LAME3.97
Настройки программы : -m j -V 4 -q 2 -lowpass 17 -b 128
Download / Скачать

Хотите скачать бесплатно? Зарегистрируйтесь на сайте (ссылка на регистрацию). Pirat.ca - самый быстрый торрент трекер в рунете!

Как скачивать  ·   Что такое торрент  ·   Рейтинг и ограничения

Пост 25-Мар-2012 09:53 (спустя 12 часов)

Топик был перенесен из форума Сериалы в форум Отечественные сериалы

gEmOkPaT
 

ficus42

Корсар

Пост 25-Мар-2012 10:50 (спустя 13 часов)

[Q] 

Будем посмотреть.
[Профиль]  [ЛС] 

OlegSh

Морской Волк

Пост 29-Мар-2012 08:34 (спустя 3 дня)

[Q] 

приступаем
[Профиль]  [ЛС] 

OlegSh

Морской Волк

Пост 29-Мар-2012 08:39 (спустя 5 минут)

[Q] 

куда все пропали? не качается совсем... cn
[Профиль]  [ЛС] 

manu

Пост 24-Июн-2012 06:29 (спустя 2 месяца 25 дней)

[Q] 


раздайте фильм, скачаю встану на раздачу...
[Профиль]  [ЛС] 

manu

Пост 28-Июн-2012 03:01 (спустя 3 дня)

[Q] 

осталось немного! встаньте на раздачу то
[Профиль]  [ЛС] 

dmsushko

Корсар

171

Пост 03-Ноя-2012 22:54 (спустя 4 месяца 5 дней)

[Q] 


_________________

[Профиль]  [ЛС] 

manu

Пост 03-Дек-2013 02:44 (спустя 1 год)

[Q] 

встану на раздачу
[Профиль]  [ЛС] 

romzes85

Шкипер

Пост 28-Фев-2015 14:30 (спустя 1 год 2 месяца)

[Q] 

спаси Спасибо!!! бо
[Профиль]  [ЛС] 

Victorsalata

Корсар

Пост 17-Авг-2015 10:39 (спустя 5 месяцев 16 дней)

[Q] 

Хороший сериал. Посмотрел еще одну версию о Соньке.
[Профиль]  [ЛС] 
Показать сообщения:    
Ответить на тему

Текущее время: Сегодня 01:58

Часовой пояс: GMT + 4



Вы не можете начинать темы
Вы не можете отвечать на сообщения
Вы не можете редактировать свои сообщения
Вы не можете удалять свои сообщения
Вы не можете голосовать в опросах
Вы не можете прикреплять файлы к сообщениям
Вы не можете скачивать файлы

▼ Вниз