ML
     
  Уважаемый Гость!
Вы можете поддержать проект и зарегистрироваться у наших партнеров - онлайн-стратегия MyLands. При регистрации в игре Вы получите код, который сможете активировать после регистрации на pirat.ca и получить 1000 дублонов.

Ваш код:
8dcb839cf1b47e56d6dc42d17f26b3e4822e9aee
 
     

Шаман (Серии: 1-16 из 16) (Максим Кубринский) [2011 г., Драма, криминал, DVDRip]

Ответить на тему
 
Автор
Сообщение

Пост 16-Апр-2012 04:23

[Q] 

Znoi

Флибустьер

-Шаман (1-16 из 16)
--Год выпуска: 2011
Российская премьера: 19 декабря 2011
Дата выхода DVD: 29 марта 2012
Производство: Россия, ООО "Гамма-продакшн"
Жанр: Драма, криминал
Продолжительность серии: 16 х ~ 00:46:00--Перевод: Не требуется
Субтитры: отсутствуют--Режиссер: Максим Кубринский--В ролях
Владимир Скворцов, Игорь Ботвин, Ян Цапник, Сергей Мардарь, Кирилл Щербина, Светлана Щедрина, Виталий Коваленко, Владимир Карпов, Евгений Катаев, Виталий Куклин, Анна Пескова, Анатолий Хропов, Алексей Лысенко, Константин Фисенко, Алексей Фокин, Михаил Сидаш, Тимофей Будкевич, Валерий Ошомков, Роман Павлушев, Юлия Сафонова, Алена Старостина, Сергей Бадюк, Дарья Циберкина--Описание
После двух лет, проведенных в СИЗО, на свободу выходит следователь СКП Иван Шаманов. У него есть сын, коллеги, азарт и работа, а также скверный характер и отличное чувство юмора. Он любвеобилен – и красотки отвечают ему взаимностью. Его главный враг – Корнеев, человек, из-за которого Шаман и попал за решетку. Шаман слишком крутой в своей профессии – и это не может оставить равнодушными тех, с кем он борется: преступники его боятся, запугивают и пытаются убрать. Но Шаман точно знает, что сила – в правде. А потому всегда на шаг опережает злодеев. В каждом криминальном деле, которое расследует Шаманов, будь то убийство фельдшера "Скорой помощи" или расстрел дальнобойщика, задержание "чёрного" риэлтора или загадочная гибель бизнесмена на горнолыжном курорте - Ивану приходится сталкиваться с преступниками лицом к лицу. А они, как правило, умны, изощрены в своих уловках и ничуть не уступают ему в силе, а порой даже превосходят его. Но для Шамана безусловно то, что зло надо искоренять всеми возможными способами!-- --Источник/Качество: DVDRip
Формат: AVI
Видео кодек: XviD
Аудио кодек: AC3
Видео: ~ 1800 Kbps, 720х400, 16:9, 25.000 fps, 8 bits, ~0.246 Bits/Pixel
Аудио: AC3, 256 Kbps, 2 channels, Front: L R, 48.0 KHz, 16 bits
General
Complete name : D:\Shaman.(01-16.serii.iz.16).2011.XviD.DVDRip.[pirat.ca]\Shaman.(01.seriya.iz.16).2011.XviD.DVDRip.avi
Format : AVI
Format/Info : Audio Video Interleave
File size : 696 MiB
Duration : 45mn 55s
Overall bit rate : 2 118 Kbps
Writing application : VirtualDubMod 1.5.10.3 | www.virtualdub-fr.org || (build 2550/release)
Writing library : VirtualDubMod build 2550/release
Video
ID : 0
Format : MPEG-4 Visual
Format profile : Advanced [email protected]
Format settings, BVOP : 2
Format settings, QPel : No
Format settings, GMC : No warppoints
Format settings, Matrix : Default (MPEG)
Codec ID : XVID
Codec ID/Hint : XviD
Duration : 45mn 55s
Bit rate : 1 769 Kbps
Width : 720 pixels
Height : 400 pixels
Display aspect ratio : 16:9
Frame rate : 25.000 fps
Color space : YUV
Chroma subsampling : 4:2:0
Bit depth : 8 bits
Scan type : Progressive
Compression mode : Lossy
Bits/(Pixel*Frame) : 0.246
Stream size : 581 MiB (84%)
Writing library : XviD 1.2.1 (UTC 2008-12-04)
Audio
ID : 1
Format : AC-3
Format/Info : Audio Coding 3
Mode extension : CM (complete main)
Codec ID : 2000
Duration : 45mn 55s
Bit rate mode : Constant
Bit rate : 256 Kbps
Channel(s) : 2 channels
Channel positions : Front: L R
Sampling rate : 48.0 KHz
Bit depth : 16 bits
Compression mode : Lossy
Stream size : 84.1 MiB (12%)
Alignment : Split accross interleaves
General
Complete name : D:\Shaman.(01-16.serii.iz.16).2011.XviD.DVDRip.[pirat.ca]\Shaman.(02.seriya.iz.16).2011.XviD.DVDRip.avi
Format : AVI
Format/Info : Audio Video Interleave
File size : 700 MiB
Duration : 46mn 2s
Overall bit rate : 2 126 Kbps
Writing application : VirtualDubMod 1.5.10.3 | www.virtualdub-fr.org || (build 2550/release)
Writing library : VirtualDubMod build 2550/release
Video
ID : 0
Format : MPEG-4 Visual
Format profile : Advanced [email protected]
Format settings, BVOP : 2
Format settings, QPel : No
Format settings, GMC : No warppoints
Format settings, Matrix : Default (MPEG)
Codec ID : XVID
Codec ID/Hint : XviD
Duration : 46mn 2s
Bit rate : 1 777 Kbps
Width : 720 pixels
Height : 400 pixels
Display aspect ratio : 16:9
Frame rate : 25.000 fps
Color space : YUV
Chroma subsampling : 4:2:0
Bit depth : 8 bits
Scan type : Progressive
Compression mode : Lossy
Bits/(Pixel*Frame) : 0.247
Stream size : 585 MiB (84%)
Writing library : XviD 1.2.1 (UTC 2008-12-04)
Audio
ID : 1
Format : AC-3
Format/Info : Audio Coding 3
Mode extension : CM (complete main)
Codec ID : 2000
Duration : 46mn 2s
Bit rate mode : Constant
Bit rate : 256 Kbps
Channel(s) : 2 channels
Channel positions : Front: L R
Sampling rate : 48.0 KHz
Bit depth : 16 bits
Compression mode : Lossy
Stream size : 84.3 MiB (12%)
Alignment : Split accross interleaves
General
Complete name : D:\Shaman.(01-16.serii.iz.16).2011.XviD.DVDRip.[pirat.ca]\Shaman.(03.seriya.iz.16).2011.XviD.DVDRip.avi
Format : AVI
Format/Info : Audio Video Interleave
File size : 698 MiB
Duration : 46mn 0s
Overall bit rate : 2 123 Kbps
Writing application : VirtualDubMod 1.5.10.3 | www.virtualdub-fr.org || (build 2550/release)
Writing library : VirtualDubMod build 2550/release
Video
ID : 0
Format : MPEG-4 Visual
Format profile : Advanced [email protected]
Format settings, BVOP : 2
Format settings, QPel : No
Format settings, GMC : No warppoints
Format settings, Matrix : Default (MPEG)
Muxing mode : Packed bitstream
Codec ID : XVID
Codec ID/Hint : XviD
Duration : 46mn 0s
Bit rate : 1 857 Kbps
Width : 720 pixels
Height : 400 pixels
Display aspect ratio : 16:9
Frame rate : 25.000 fps
Color space : YUV
Chroma subsampling : 4:2:0
Bit depth : 8 bits
Scan type : Progressive
Compression mode : Lossy
Bits/(Pixel*Frame) : 0.258
Stream size : 611 MiB (87%)
Writing library : XviD 64
Audio
ID : 1
Format : AC-3
Format/Info : Audio Coding 3
Mode extension : CM (complete main)
Codec ID : 2000
Duration : 46mn 0s
Bit rate mode : Constant
Bit rate : 256 Kbps
Channel(s) : 2 channels
Channel positions : Front: L R
Sampling rate : 48.0 KHz
Bit depth : 16 bits
Compression mode : Lossy
Stream size : 84.2 MiB (12%)
Alignment : Split accross interleaves
Interleave, duration : 40 ms (1.00 video frame)
Interleave, preload duration : 500 ms
..............................
Фильм 1. «Кровавый маршрут»
Фильм 2. «Сделка»
Фильм 3. «Телохранитель»
Фильм 4. «Врачебная тайна»
Фильм 5. «Скрытая выгода»
Фильм 6. «Черный Феникс»
Фильм 7. «Самоубийца»
Фильм 8. «Реванш»
Download / Скачать

Хотите скачать бесплатно? Зарегистрируйтесь на сайте (ссылка на регистрацию). Pirat.ca - самый быстрый торрент трекер в рунете!

Как скачивать  ·   Что такое торрент  ·   Рейтинг и ограничения

Пост 16-Апр-2012 20:41 (спустя 16 часов)

Топик был перенесен из форума Сериалы в форум Отечественные сериалы

Андря
 

manu

Пост 24-Июн-2012 06:27 (спустя 2 месяца 8 дней)

[Q] 

[Профиль]  [ЛС] 

pp2141

Гроза морей

Пост 30-Ноя-2012 17:48 (спустя 5 месяцев 6 дней)

[Q] 

Спасибо
[Профиль]  [ЛС] 

pp2141

Гроза морей

Пост 01-Дек-2012 03:17 (спустя 9 часов)

[Q] 

[Профиль]  [ЛС] 

CHARLI2236

1098

Пост 17-Фев-2013 21:13 (спустя 2 месяца 16 дней)

[Q] 

спасибо

_________________
[Профиль]  [ЛС] 
Показать сообщения:    
Ответить на тему

Текущее время: Сегодня 04:19

Часовой пояс: GMT + 4



Вы не можете начинать темы
Вы не можете отвечать на сообщения
Вы не можете редактировать свои сообщения
Вы не можете удалять свои сообщения
Вы не можете голосовать в опросах
Вы не можете прикреплять файлы к сообщениям
Вы не можете скачивать файлы

▼ Вниз