ML
     
  Уважаемый Гость!
Вы можете поддержать проект и зарегистрироваться у наших партнеров - онлайн-стратегия MyLands. При регистрации в игре Вы получите код, который сможете активировать после регистрации на pirat.ca и получить 1000 дублонов.

Ваш код:
fe4e93b754a7c2b306fcfc8bc32532ea1cf59d3b
 
     

Адмиралъ: История в десяти фильмах (1-10 серии из 10) (Андрей Кравчук) [2009 г., драма, история, BDRip]

Ответить на тему
 
Автор
Сообщение

Пост 19-Апр-2012 02:54

[Q] 

gEmOkPaT

--Адмиралъ: История в десяти фильмах-- Год выпуска :2009
Страна: Россия
Жанр: драма, история
Продолжительность: ~00:50:48\серия
Перевод: Не требуется
Режиссёр: Андрей Кравчук
В ролях:
Константин Хабенский, Елизавета Боярская, Сергей Безруков, Анна Ковальчук, Владислав Ветров, Егор Бероев, Ришар Боринже, Николай Бурляев, Виктор Вержбицкий, Федор Бондарчук, Александр Лазарев мл., Игорь Савочкин, Кирилл Плетнев, Олег Фомин, Виктор Запорожский, Анатолий Пашинин, Николай Реутов, Владимир Чуприков, Александр Арефьев, Евгений Березовский, Александр Рапопорт
Описание:
Фильм, рассказывающий о жизни и любви выдающегося боевого офицера военно-морского флота, полярного исследователя, а затем ставшего адмиралом, верховного правителя России — Александра Васильевича Колчака и Анны Тимиревой. События разворачиваются в период 1916—1920 годов на фоне крушения Российской империи, двух революций и Гражданской войны.
Качество: BDRip
Формат: AVI
Видео кодек: XviD
Аудио кодек: AC3
Видео: : 720x336 (2.14:1), 23.976 fps, XviD build 50 ~2002 kbps avg, 0.34 bit/pixel
Аудио: 48 kHz, AC3 Dolby Digital, 3/2 (L,C,R,l,r) + LFE ch, ~448 kbps
Общее
Полное имя : F:\Мои раздачи\Admiral.2008.RUS.BDRip.XviD.AC3.-HELLYWOOD\Admiral.E01.2008.RUS.BDRip.XviD.AC3.-HELLYWOOD.avi
Формат : AVI
Формат/Информация : Audio Video Interleave
Размер файла : 859 Мбайт
Продолжительность : 48 м.
Общий поток : 2460 Кбит/сек
Название фильма : Адмиралъ: История в десяти фильмах (2008) BDRip
Программа кодирования : VirtualDubMod 1.5.10.2 (build 2542/release)
Видео
Идентификатор : 0
Формат : MPEG-4 Visual
Профиль формата : Advanced [email protected]
Параметр BVOP формата : 1
Параметр QPel формата : Нет
Параметр GMC формата : Без точки перехода
Параметр матрицы формата : Выборочная
Идентификатор кодека : XVID
Идентификатор кодека/Подсказка : XviD
Продолжительность : 48 м.
Битрейт : 2002 Кбит/сек
Ширина : 720 пикселей
Высота : 336 пикселей
Соотношение сторон : 2,2:1
Частота кадров : 23,976 кадра/сек
Цветовое пространство : YUV
Субдискретизация насыщенности : 4:2:0
Битовая глубина : 8 бит
Тип развёртки : Прогрессивная
Метод сжатия : С потерями
Бит/(Пиксели*Кадры) : 0.345
Размер потока : 699 Мбайт (81%)
Библиотека кодирования : XviD 1.2.1 (UTC 2008-12-04)
Аудио
Идентификатор : 1
Формат : AC-3
Формат/Информация : Audio Coding 3
Расширение режима : CM (complete main)
Идентификатор кодека : 2000
Продолжительность : 48 м.
Вид битрейта : Постоянный
Битрейт : 448 Кбит/сек
Каналы : 6 каналов
Расположение каналов : Front: L C R, Side: L R, LFE
Частота : 48,0 КГц
Битовая глубина : 16 бит
Метод сжатия : С потерями
Размер потока : 156 Мбайт (18%)
Выравнивание : Разделение по промежуткам
Продолжительность промежутка : 42 мс. (1,00 видеокадр)
Время предзагрузки промежутка : 500 мс.
Download / Скачать

Хотите скачать бесплатно? Зарегистрируйтесь на сайте (ссылка на регистрацию). Pirat.ca - самый быстрый торрент трекер в рунете!

Как скачивать  ·   Что такое торрент  ·   Рейтинг и ограничения



Последний раз редактировалось: gEmOkPaT (2012-04-23 11:03), всего редактировалось 1 раз

kiryandr

Легенда

63132

Пост 19-Апр-2012 11:26 (спустя 8 часов)

[Q] 


_________________
[Профиль]  [ЛС] 

Пост 19-Апр-2012 11:31 (спустя 5 минут)

Топик был перенесен из форума Сериалы в форум Отечественные сериалы

Андря
 

ksg111ban

Гроза морей

Пост 24-Апр-2012 21:59 (спустя 5 дней)

[Q] 


_________________
[Профиль]  [ЛС] 

okorm

889

Пост 20-Фев-2013 07:08 (спустя 9 месяцев 25 дней)

[Q] 

[Профиль]  [ЛС] 

CHARLI2236

1089

Пост 17-Июл-2013 22:50 (спустя 4 месяца 25 дней)

[Q] 

31

_________________
[Профиль]  [ЛС] 

alex denver71

Флибустьер

Пост 17-Ноя-2014 18:23 (спустя 1 год 3 месяца)

[Q] 

Автору респект!!! на любителя aa
[Профиль]  [ЛС] 

Юр.И.К.

43

Пост 31-Янв-2016 23:36 (спустя 1 год 2 месяца)

[Q] 

Хабенский-просто на высоте!!! В школе офицеров для воспитания правильного морального облика показывать надо.
[Профиль]  [ЛС] 
Показать сообщения:    
Ответить на тему

Текущее время: Сегодня 14:32

Часовой пояс: GMT + 4



Вы не можете начинать темы
Вы не можете отвечать на сообщения
Вы не можете редактировать свои сообщения
Вы не можете удалять свои сообщения
Вы не можете голосовать в опросах
Вы не можете прикреплять файлы к сообщениям
Вы не можете скачивать файлы

▼ Вниз