ML
     
  Уважаемый Гость!
Вы можете поддержать проект и зарегистрироваться у наших партнеров - онлайн-стратегия MyLands. При регистрации в игре Вы получите код, который сможете активировать после регистрации на pirat.ca и получить 1000 дублонов.

Ваш код:
822959f93c00d34653763d5bbf9ee9a7134af98a
 
     

Геймеры (Серии: 1-8 из 8) (Михаил Шевчук) [2012 г., боевик, приключения, DVDRip]

Ответить на тему
 
Автор
Сообщение

Пост 18-Май-2012 00:38

[Q] 

MeGmaksim

Шкипер

Геймеры
-
Год выпуска: 2012
Серии: 1-8 из 8
Российская премьера: 12 марта 2012
Дата выхода DVD: 7 мая 2012
Производство: Россия, КАРО-Продакшн
Жанр: боевик, приключения
Продолжительность серии: 00:47:00-
Перевод: Не требуется
Субтитры: отсутствуют-
Режиссер: Михаил Шевчук-
В ролях
Сергей Чирков, Павел Прилучный, Агата Муцениеце, Нодар Сирадзе, Евгений Харланов, Борис Тенин, Юрий Кригер, Сергей Сериков, Анна Васильева, Светлана Изотова, Илья Сысоев, Иван Соловьев, Евгения Лапова, Роман Савченко, Юрий Сысоев, Анатолий Филиппов, Игорь Мещерин, Джульетта Казакевич-
Описание
Виртуальный мир притягивает. Он ярче и интереснее серой действительности. Там позволено делать то, что недоступно в реальности, а главное – всегда можно сохраниться и начать сначала. Каждый день миллионы геймеров захватывают средневековые замки, воюют с инопланетными племенами, побеждают в чемпионатах по футболу, гоняют на суперкарах, строят города и разрушают вселенные. Для кого-то компьютерные игрушки – хобби, для кого-то – профессия. Но как быть, если жизнь и игра переплелись так плотно, что невозможно отделить их друг от друга? Единственный выход – продолжать играть по новым правилам, ведь шанс вернуться в реальность появится, только когда пройдешь игру до конца… Таинственным высокопоставленным силам нужны новые идеальные кибер-солдаты для выполнения их планов. Из старой команды за дело готов взяться только Док. Он выжил, он жаждет мести и готов на всё. Док набирает новичков, способных заменить прежний отряд, но вскоре даже его «хозяевам» становится понятно, что ситуация выходит из-под контроля... -
,
-
Источник/Качество: DVDRip
Формат: AVI
Видео кодек: XviD
Аудио кодек: AC3
Видео: 720x400 (1.80:1), 25 fps, XviD build 50 ~1838 kbps avg, 0.26 bit/pixel
Аудио: 48 kHz, AC3 Dolby Digital, 2/0 (L,R) ch, ~192 kbps-
Общее
Полное имя : G:\раздачи\Gejmery.1-8.serii.2012.O.DVDRip\Gejmery.1.seria.2012.O.DVDRip.avi
Формат : AVI
Формат/Информация : Audio Video Interleave
Размер файла : 701 Мбайт
Продолжительность : 47 м.
Общий поток : 2041 Кбит/сек
Название фильма : Gejmery.1.seria.2012.O.DVDRip
Режиссёр : Михаил Шевчук
Программа кодирования : VirtualDubMod 1.5.10.2 (build 2540/release)
Видео
Идентификатор : 0
Формат : MPEG-4 Visual
Профиль формата : Advanced [email protected]
Параметр BVOP формата : 2
Параметр QPel формата : Нет
Параметр GMC формата : Без точки перехода
Параметр матрицы формата : Выборочная
Идентификатор кодека : XVID
Идентификатор кодека/Подсказка : XviD
Продолжительность : 47 м.
Битрейт : 1839 Кбит/сек
Ширина : 720 пикселей
Высота : 400 пикселей
Соотношение сторон : 16:9
Частота кадров : 25,000 кадров/сек
Цветовое пространство : YUV
Субдискретизация насыщенности : 4:2:0
Битовая глубина : 8 бит
Тип развёртки : Прогрессивная
Метод сжатия : С потерями
Бит/(Пиксели*Кадры) : 0.255
Размер потока : 631 Мбайт (90%)
Библиотека кодирования : XviD 1.2.1 (UTC 2008-12-04)
Аудио
Идентификатор : 1
Формат : AC-3
Формат/Информация : Audio Coding 3
Расширение режима : CM (complete main)
Идентификатор кодека : 2000
Продолжительность : 47 м.
Вид битрейта : Постоянный
Битрейт : 192 Кбит/сек
Каналы : 2 канала
Расположение каналов : Front: L R
Частота : 48,0 КГц
Битовая глубина : 16 бит
Метод сжатия : С потерями
Размер потока : 65,9 Мбайт (9%)
Выравнивание : Соединение по промежуткам
Продолжительность промежутка : 40 мс. (1,00 видеокадр)
Время предзагрузки промежутка : 512 мс.
Download / Скачать

Хотите скачать бесплатно? Зарегистрируйтесь на сайте (ссылка на регистрацию). Pirat.ca - самый быстрый торрент трекер в рунете!

Как скачивать  ·   Что такое торрент  ·   Рейтинг и ограничения

Пост 18-Май-2012 15:14 (спустя 14 часов)

Топик был перенесен из форума Сериалы в форум Отечественные сериалы

Андря
 

-Krest-

Лоцман

76

Пост 24-Июн-2012 13:39 (спустя 1 месяц 6 дней)

[Q] 

и где все сиды?
на 59% уже 3й день (((
[Профиль]  [ЛС] 

-Krest-

Лоцман

76

Пост 26-Июн-2012 21:02 (спустя 2 дня 7 часов)

[Q] 

О! уже 62,7% )))
такими темпами ......
дайте скачать, обещаю повешу на раздаче месяцок-другой )
[Профиль]  [ЛС] 

UncleTim

Корсар

Пост 04-Июл-2012 10:51 (спустя 7 дней)

[Q] 

[Профиль]  [ЛС] 

Darts

Лоцман

Пост 28-Окт-2012 00:49 (спустя 3 месяца 23 дня)

[Q] 

скорость не радует. 0-50кбс как то...

_________________
[Профиль]  [ЛС] 
Показать сообщения:    
Ответить на тему

Текущее время: Сегодня 05:58

Часовой пояс: GMT + 4



Вы не можете начинать темы
Вы не можете отвечать на сообщения
Вы не можете редактировать свои сообщения
Вы не можете удалять свои сообщения
Вы не можете голосовать в опросах
Вы не можете прикреплять файлы к сообщениям
Вы не можете скачивать файлы

▼ Вниз