Уважаемый Гость!
Вы можете поддержать проект и зарегистрироваться у наших партнеров - онлайн-стратегия MyLands. При регистрации в игре Вы получите код, который сможете активировать после регистрации на pirat.ca и получить 1000 дублонов.

Ваш код:
827bbf362f25a12f4dde2f42d3a9197afb5d08f8
 
     

Байки из склепа / Tales from the Crypt (Уолтер Хилл / Walter Hill) [1989 г., ужасы, комедия, триллер, DVD9] [Первый сезон 6 из 6 серий.] AVO (Антон Карповский) + original (Eng)

Ответить на тему
 
Автор
Сообщение

Пост 01-Мар-2013 15:17

[Q] 

Wolf_Larsen

Флибустьер

Байки из склепа / Tales from the Crypt (Первый сезон, шесть серий из шести.)
Год выпуска: 1989
Производство: США, Home Box Office (HBO)
Жанр: ужасы, комедия, триллер
Продолжительность: 26 минут
Перевод: Авторский (одноголосый, закадровый) Антон Карповский
Оригинальный аудиопоток: английский
Субтитры: английские
Режиссер: Уолтер Хилл / Walter Hill, Роберт Земекис / Robert Zemeckis, Ричард Доннер / Richard Donner
В ролях: Уильям Сэдлер, Джо Пантольяно, Роберт Вул, Ларри Дрэйк, Маршалл Белл, Лиа Томпсон, Аманда Пламмер, М. Эммет Уолш
Описание: «Байки из склепа» — телесериал, созданный по мотивам комиксов Уильяма М. Гейнса, составленный из более чем полусотни сюжетов, представляющих собой короткие страшно юморные истории, рассказанные от лица симпатичного обитателя склепа, сопровождаемые его едкими, зловонными комментариями. Помните — смех продлевает жизнь, а постоянный страх сделает вас бессмертным.
За перевод у Карповского говорим спасибо Wolf_Larsen, feldeger, dunhill200, и конечно большое спасибо Самому А. Карповскому за прекрасный перевод!
За сборку большое спасибо edsz
1. The man who wa death / Человек который был смертью
2. And all through the house / Мирно дремлет старый дом
3. Dig that cat....he's real come / Откопайте этого кота... он и в правду сдох
4. Only sin deep / Всего лишь глубина греха
5. Lover come yack to me / Любовничик, приходи ко мне на раскрамсалки
6. Collection completed / Коллекция собранаполностью
IMDB , КиноПоиск
Источник/Качество: DVD9
Контейнер: DVD Video
Видео кодек: MPEG2
Аудио кодек: AC3
Видео: NTSC 4:3 (720x480) VBR
Аудио #1: 48 KHz, AC3, 2/0 (L,R) ch, 192 kbps, Delay 0 mSec - Карповский
Аудио #2: 48 KHz, AC3, 2/0 (L,R) ch, 192 kbps [оригинал английский]
Формат субтитров: softsub (SRT)
Общее
Формат : MPEG-PS
Размер файла : 1024 Мбайт
Продолжительность : 25 м.
Общий поток : 5620 Кбит/сек
Видео
Идентификатор : 224 (0xE0)
Формат : MPEG Video
Версия формата : Version 2
Профиль формата : [email protected]
Параметр BVOP формата : Да
Параметр матрицы формата : По умолчанию
Продолжительность : 25 м.
Вид битрейта : Переменный
Битрейт : 5124 Кбит/сек
Номинальный битрейт : 9800 Кбит/сек
Ширина : 720 пикс.
Высота : 480 пикс.
Соотношение сторон : 4:3
Частота кадров : 29,970 кадр/сек
Стандарт вещания : NTSC
Цветовое пространство : YUV
Подвыборка цветности : 4:2:0
Битовая глубина : 8 бит
Метод сжатия : С потерями
Бит/(Пиксели*Кадры) : 0.495
Размер потока : 934 Мбайт (91%)
Аудио #1
Идентификатор : 189 (0xBD)-128 (0x80)
Формат : AC-3
Формат/Информация : Audio Coding 3
Профиль формата : Dolby Digital
Расширение режима : CM (complete main)
Режим смешивания : DVD-Video
Продолжительность : 25 м.
Вид битрейта : Постоянный
Битрейт : 192 Кбит/сек
Канал(ы) : 2 канала(ов)
Расположение каналов : Front: L R
Частота : 48,0 КГц
Битовая глубина : 16 бит
Метод сжатия : С потерями
Задержка видео : -422 мс.
Размер потока : 35,0 Мбайт (3%)
Аудио #2
Идентификатор : 189 (0xBD)-129 (0x81)
Формат : AC-3
Формат/Информация : Audio Coding 3
Профиль формата : Dolby Digital
Расширение режима : CM (complete main)
Режим смешивания : DVD-Video
Продолжительность : 25 м.
Вид битрейта : Постоянный
Битрейт : 192 Кбит/сек
Канал(ы) : 2 канала(ов)
Расположение каналов : Front: L R
Частота : 48,0 КГц
Битовая глубина : 16 бит
Метод сжатия : С потерями
Задержка видео : -422 мс.
Размер потока : 35,0 Мбайт (3%)
Текст #1
Идентификатор : 224 (0xE0)-DVD-2
Формат : EIA-608
Режим смешивания : DVD-Video
Режим смешивания, доп. информаци : Muxed in Video #1
Размер потока : 0,00 байт (0%)
Текст #2
Идентификатор : 189 (0xBD)-32 (0x20)
Формат : RLE
Формат/Информация : Run-length encoding
Режим смешивания : DVD-Video
Текст #3
Идентификатор : 189 (0xBD)-33 (0x21)
Формат : RLE
Формат/Информация : Run-length encoding
Режим смешивания : DVD-Video
Текст #4
Идентификатор : 189 (0xBD)-34 (0x22)
Формат : RLE
Формат/Информация : Run-length encoding
Режим смешивания : DVD-Video
Меню
Всем кому понравился релиз и кто хочет увидеть остальные серии Баек в переводе Карповского прошу заглянуть сюда:Байки из склепа от Карповского.
Приветствуется любая помощь.
Download / Скачать

Хотите скачать бесплатно? Зарегистрируйтесь на сайте (ссылка на регистрацию). Pirat.ca - самый быстрый торрент трекер в рунете!

Как скачивать  ·   Что такое торрент  ·   Рейтинг и ограничения



Последний раз редактировалось: Wolf_Larsen (2013-03-01 21:50), всего редактировалось 3 раз(а)

StatusQuo

Шкипер

Пост 01-Мар-2013 15:31 (спустя 14 минут)

[Q] 

Вот оно детство) спасибо большое за то что выложили)

_________________
[Профиль]  [ЛС] 

Wolf_Larsen ®

Флибустьер

1305

Пост 01-Мар-2013 16:40 (спустя 1 час 9 минут)

[Q] 

Linnan, Блин, DVD впервые выкладываю у меня тут всё настроено под рипы, поэтому запутался вконец. Дык ещё не просто дивидюк а ещё и сериал. скачал DVDinfo там одна дорога вылезла, потом дошёл до раздела media info там вылезло две дороги.
[Профиль]  [ЛС] 

Linnan

2657

Пост 01-Мар-2013 16:43 (спустя 2 минуты)

[Q] 

Wolf_Larsen,
просто двд или сериал - разницы нет, система одна. А рип-то будет? В рипе с сериалом возни больше, там к каждой серии скрин делать придётся и медиаинфо на всю папку сразу

_________________

По ночам не раздаю
[Профиль]  [ЛС] 

Wolf_Larsen ®

Флибустьер

1305

Пост 01-Мар-2013 16:49 (спустя 5 минут)

[Q] 

Linnan, Будет. Конечно будет. У меня уже готовые лежат. Рабочие, нормальные но Юра хочет новые сделать, Но по любому пока двд не раздам рипы не начну оформлять. Хотя бы пару человек чтоб скачало чтоб я отвязался от этого двд и перешёл на рипы.
[Профиль]  [ЛС] 

Linnan

2657

Пост 01-Мар-2013 16:51 (спустя 2 минуты)

[Q] 

Wolf_Larsen,
статус пополняемый поставлю, чтобы следующий диск в этой же раздаче оформил, чтобы не плодить. При пополняемом модера открыть раздачу просить не нужно

_________________

По ночам не раздаю
[Профиль]  [ЛС] 

Wolf_Larsen ®

Флибустьер

1305

Пост 01-Мар-2013 16:53 (спустя 1 минута)

[Q] 

Linnan, Как скажеш )))
[Профиль]  [ЛС] 

Linnan

2657

Пост 01-Мар-2013 16:55 (спустя 1 минута)

[Q] 

Wolf_Larsen,
заодно тебе с раздачей помогу) Если при обновлении будут вопросы - обращайся, не стесняйся)

_________________

По ночам не раздаю
[Профиль]  [ЛС] 

Wolf_Larsen ®

Флибустьер

1305

Пост 01-Мар-2013 17:00 (спустя 4 минуты)

[Q] 

Linnan, Обязательно aa
[Профиль]  [ЛС] 

edsz

Флибустьер

1456

Пост 01-Мар-2013 21:23 (спустя 4 часа)

[Q] 

Wolf_Larsen
Помогу с раздачей
Лучше указать какие серии, в первом сезоне
1. The man who wa death
2. And all through the house
3. Dig that cat....he's real come
4. Only sin deep
5. Lover come yack to me
6. Collection completed
Вот более точная инфа
Общее
Полное имя : D:\1MKV\TALES_FROM_THE_CRYPT\VIDEO_TS\VTS_01_2.VOB
Формат : MPEG-PS
Размер файла : 1024 Мбайт
Продолжительность : 25 м.
Общий поток : 5620 Кбит/сек
Видео
Идентификатор : 224 (0xE0)
Формат : MPEG Video
Версия формата : Version 2
Профиль формата : [email protected]
Параметр BVOP формата : Да
Параметр матрицы формата : По умолчанию
Продолжительность : 25 м.
Вид битрейта : Переменный
Битрейт : 5124 Кбит/сек
Номинальный битрейт : 9800 Кбит/сек
Ширина : 720 пикс.
Высота : 480 пикс.
Соотношение сторон : 4:3
Частота кадров : 29,970 кадр/сек
Стандарт вещания : NTSC
Цветовое пространство : YUV
Подвыборка цветности : 4:2:0
Битовая глубина : 8 бит
Метод сжатия : С потерями
Бит/(Пиксели*Кадры) : 0.495
Размер потока : 934 Мбайт (91%)
Аудио #1
Идентификатор : 189 (0xBD)-128 (0x80)
Формат : AC-3
Формат/Информация : Audio Coding 3
Профиль формата : Dolby Digital
Расширение режима : CM (complete main)
Режим смешивания : DVD-Video
Продолжительность : 25 м.
Вид битрейта : Постоянный
Битрейт : 192 Кбит/сек
Канал(ы) : 2 канала(ов)
Расположение каналов : Front: L R
Частота : 48,0 КГц
Битовая глубина : 16 бит
Метод сжатия : С потерями
Задержка видео : -422 мс.
Размер потока : 35,0 Мбайт (3%)
Аудио #2
Идентификатор : 189 (0xBD)-129 (0x81)
Формат : AC-3
Формат/Информация : Audio Coding 3
Профиль формата : Dolby Digital
Расширение режима : CM (complete main)
Режим смешивания : DVD-Video
Продолжительность : 25 м.
Вид битрейта : Постоянный
Битрейт : 192 Кбит/сек
Канал(ы) : 2 канала(ов)
Расположение каналов : Front: L R
Частота : 48,0 КГц
Битовая глубина : 16 бит
Метод сжатия : С потерями
Задержка видео : -422 мс.
Размер потока : 35,0 Мбайт (3%)
Текст #1
Идентификатор : 224 (0xE0)-DVD-2
Формат : EIA-608
Режим смешивания : DVD-Video
Режим смешивания, доп. информаци : Muxed in Video #1
Размер потока : 0,00 байт (0%)
Текст #2
Идентификатор : 189 (0xBD)-32 (0x20)
Формат : RLE
Формат/Информация : Run-length encoding
Режим смешивания : DVD-Video
Текст #3
Идентификатор : 189 (0xBD)-33 (0x21)
Формат : RLE
Формат/Информация : Run-length encoding
Режим смешивания : DVD-Video
Текст #4
Идентификатор : 189 (0xBD)-34 (0x22)
Формат : RLE
Формат/Информация : Run-length encoding
Режим смешивания : DVD-Video
Меню

_________________
"Медведь ни у кого разрешения спрашивать не будет. Надеюсь это всем понятно"


Последний раз редактировалось: edsz (2013-03-01 21:54), всего редактировалось 1 раз
[Профиль]  [ЛС] 

Wolf_Larsen ®

Флибустьер

1305

Пост 01-Мар-2013 21:52 (спустя 29 минут)

[Q] 

edsz, Спасибо за помощь (век живи, век учись), подправил. aa
[Профиль]  [ЛС] 

edsz

Флибустьер

1456

Пост 01-Мар-2013 21:58 (спустя 5 минут)

[Q] 

Wolf_Larsen,
az

_________________
"Медведь ни у кого разрешения спрашивать не будет. Надеюсь это всем понятно"
[Профиль]  [ЛС] 

vik19662007

Гроза морей

2970

Пост 02-Мар-2013 17:55 (спустя 19 часов)

[Q] 

Wolf_Larsen,
Спасибо за раздачу, всем участникам проекта также спасибо.

_________________
Не стесняйся пьяница носа своего, он ведь с нашим знаменем цвета одного.
[Профиль]  [ЛС] 

Wolf_Larsen ®

Флибустьер

1305

Пост 02-Мар-2013 18:56 (спустя 1 час 1 минута)

[Q] 

vik19662007, aa
[Профиль]  [ЛС] 
Показать сообщения:    
Ответить на тему

Текущее время: Сегодня 02:27

Часовой пояс: GMT + 4



Вы не можете начинать темы
Вы не можете отвечать на сообщения
Вы не можете редактировать свои сообщения
Вы не можете удалять свои сообщения
Вы не можете голосовать в опросах
Вы не можете прикреплять файлы к сообщениям
Вы не можете скачивать файлы

▼ Вниз