Уважаемый Гость!
Вы можете поддержать проект и зарегистрироваться у наших партнеров - онлайн-стратегия MyLands. При регистрации в игре Вы получите код, который сможете активировать после регистрации на pirat.ca и получить 1000 дублонов.

Ваш код:
827bbf362f25a12f4dde2f42d3a9197afb5d08f8
 
     

Байки из склепа / Tales from the Crypt (Тоуб Хупер / Tobe Hooper) [1991 г., ужасы, комедия, триллер, DVD9] [третий сезон: 6 серий из 14] AVO (Карповский Антон)

Ответить на тему
 
Автор
Сообщение

Пост 24-Июл-2013 18:24

[Q] 

Wolf_Larsen

Флибустьер

Байки из склепа / Tales from the Crypt
Год выпуска: 1991
Производство: США, Home Box Office (HBO)
Жанр: ужасы, комедия, триллер
Продолжительность: 00:25:00
Перевод: Авторский (одноголосый, закадровый) Карповский Антон
Оригинальный аудиопоток: английский
Субтитры: английские, французские, испанские
Режиссер: Том Манкевич / Tom Mankiewicz, Тоуб Хупер / Tobe Hooper, Стивен Е. де Соуза / Steven E. de Souza
В ролях: Эндрю МакКарти, Мэриэл Хемингуэй, Кайл МакЛоклен, Тери Гарр, Бруно Кёрби, Брюс МакГилл, Бо Бриджес, Тони Голдуин, Джон Ловиц, Сандра Бернхард, Вупи Голдберг, Джон Рис-Дэвис, Вэнити, Джеймс Римар
Описание: «Байки из склепа» — телесериал, созданный по мотивам комиксов Уильяма М. Гейнса, составленный из более чем полусотни сюжетов, представляющих собой короткие страшно юморные истории, рассказанные от лица симпатичного обитателя склепа, сопровождаемые его едкими, зловонными комментариями. Помните — смех продлевает жизнь, а постоянный страх сделает вас бессмертным.
Перевод данного сезона, сериала состоялся благодаря: feldeger, Wolf_Larsen, Linnan, TOMAN, vik19662007, dunhill200
и конечно большое спасибо Самому А. Карповскому за прекрасный перевод!
За сборку диска большое спасибо edsz
IMDB , КиноПоиск
Качество видео: DVD9
Контейнер: DVD Video
Видео кодек: MPEG2
Аудио кодек: AC3
Видео: NTSC 4:3 (720x480) VBR
Аудио : AC3, 2/0 (L,R) ch, 192 kbps, Delay 0 mSec - Карповский
Аудио #2: AC3, 2/0 (L,R) ch, 192 kbps, Delay 0 mSec - Оригинал (английский)
Формат субтитров: softsub (SRT)
Формат : MPEG-PS
Размер файла : 1024 Мбайт
Продолжительность : 24 м.
Общий поток : 5746 Кбит/сек
Видео
Идентификатор : 224 (0xE0)
Формат : MPEG Video
Версия формата : Version 2
Профиль формата : [email protected]
Параметр BVOP формата : Да
Параметр матрицы формата : По умолчанию
Продолжительность : 24 м.
Вид битрейта : Переменный
Битрейт : 5248 Кбит/сек
Номинальный битрейт : 9800 Кбит/сек
Ширина : 720 пикс.
Высота : 480 пикс.
Соотношение сторон : 4:3
Частота кадров : 23,976 кадр/сек
Стандарт вещания : NTSC
Цветовое пространство : YUV
Подвыборка цветности : 4:2:0
Битовая глубина : 8 бит
Тип развёртки : Прогрессивная
Порядок развёртки : 2:3 Pulldown
Метод сжатия : С потерями
Бит/(Пиксели*Кадры) : 0.633
Размер потока : 935 Мбайт (91%)
Аудио #1
Идентификатор : 189 (0xBD)-128 (0x80)
Формат : AC-3
Формат/Информация : Audio Coding 3
Профиль формата : Dolby Digital
Расширение режима : CM (complete main)
Режим смешивания : DVD-Video
Продолжительность : 24 м.
Вид битрейта : Постоянный
Битрейт : 192 Кбит/сек
Канал(ы) : 2 канала(ов)
Расположение каналов : Front: L R
Частота : 48,0 КГц
Битовая глубина : 16 бит
Метод сжатия : С потерями
Задержка видео : -343 мс.
Размер потока : 34,2 Мбайт (3%)
Аудио #2
Идентификатор : 189 (0xBD)-129 (0x81)
Формат : AC-3
Формат/Информация : Audio Coding 3
Профиль формата : Dolby Digital
Расширение режима : CM (complete main)
Режим смешивания : DVD-Video
Продолжительность : 24 м.
Вид битрейта : Постоянный
Битрейт : 192 Кбит/сек
Канал(ы) : 2 канала(ов)
Расположение каналов : Front: L R
Частота : 48,0 КГц
Битовая глубина : 16 бит
Метод сжатия : С потерями
Задержка видео : -343 мс.
Размер потока : 34,2 Мбайт (3%)
Текст #1
Идентификатор : 189 (0xBD)-32 (0x20)
Формат : RLE
Формат/Информация : Run-length encoding
Режим смешивания : DVD-Video
Продолжительность : 24 м.
Задержка видео : 1 с. 785 мс.
Текст #2
Идентификатор : 189 (0xBD)-33 (0x21)
Формат : RLE
Формат/Информация : Run-length encoding
Режим смешивания : DVD-Video
Продолжительность : 24 м.
Задержка видео : 1 с. 785 мс.
Текст #3
Идентификатор : 189 (0xBD)-34 (0x22)
Формат : RLE
Формат/Информация : Run-length encoding
Режим смешивания : DVD-Video
Продолжительность : 24 м.
Задержка видео : 1 с. 785 мс.
Текст #4
Идентификатор : 224 (0xE0)-DVD-2
Формат : EIA-608
Режим смешивания : DVD-Video
Режим смешивания, доп. информаци : Muxed in Video #1
Размер потока : 0,00 байт (0%)
Download / Скачать

Хотите скачать бесплатно? Зарегистрируйтесь на сайте (ссылка на регистрацию). Pirat.ca - самый быстрый торрент трекер в рунете!

Как скачивать  ·   Что такое торрент  ·   Рейтинг и ограничения

vik19662007

Гроза морей

2970

Пост 24-Июл-2013 19:13 (спустя 49 минут)

[Q] 

Спасибо, забираю. ay az

_________________
Не стесняйся пьяница носа своего, он ведь с нашим знаменем цвета одного.
[Профиль]  [ЛС] 

Linnan

2657

Пост 24-Июл-2013 19:29 (спустя 15 минут)

[Q] 

Wolf_Larsen,
теперь можешь не переживать за судьбу раздачи - она теперь в надёжных руках, если хард не полетит)

_________________

По ночам не раздаю
[Профиль]  [ЛС] 

XMax

Флибустьер

Пост 25-Июл-2013 19:08 (спустя 23 часа)

[Q] 

Сразу юность вспомнил
[Профиль]  [ЛС] 

tantal008

Штурман

Пост 27-Авг-2013 15:31 (спустя 1 месяц 1 день)

[Q] 

Когда будут следующие ?
[Профиль]  [ЛС] 

Linnan

2657

Пост 27-Авг-2013 17:17 (спустя 1 час 46 минут)

[Q] 

413691Когда будут следующие ?
все вопросы в эту тему Байки из склепа от Карповского.

_________________

По ночам не раздаю
[Профиль]  [ЛС] 

drtom

Морской Волк

36

Пост 09-Апр-2014 14:17 (спустя 7 месяцев 12 дней)

[Q] 

Хронометраж почему-то на 3 и 9 сериях отличается от ДВД, который переводили Немахов и Визгунов. Этот исходник более полный... Пара секунд - но все же...
[Профиль]  [ЛС] 
Показать сообщения:    
Ответить на тему

Текущее время: Сегодня 02:12

Часовой пояс: GMT + 4



Вы не можете начинать темы
Вы не можете отвечать на сообщения
Вы не можете редактировать свои сообщения
Вы не можете удалять свои сообщения
Вы не можете голосовать в опросах
Вы не можете прикреплять файлы к сообщениям
Вы не можете скачивать файлы

▼ Вниз