Уважаемый Гость!
Вы можете поддержать проект и зарегистрироваться у наших партнеров - онлайн-стратегия MyLands. При регистрации в игре Вы получите код, который сможете активировать после регистрации на pirat.ca и получить 1000 дублонов.

Ваш код:
adb7b2334ac375df253962bc5c55e1885dba60ce
 
     

Твин Пикс / Twin Peaks / Сезон: 1-2 (2) / Серии: 1-30 (30) (Дэвид Линч / David Lynch, Марк Фрост / Mark Frost, ...) [1990-1991 гг., триллер, драма, криминал, детектив, BDRip, 720p] AVO (Ю.Сербин) + Original (Eng) + Sub (Rus, Eng)

Ответить на тему
 
Автор
Сообщение

Пост 30-Авг-2014 20:46

[Q] 

TERMOS

Легенда

-Твин Пикс / Twin Peaks
«A town where everyone knows everyone and nothing is what it seems»
(Все сезоны)
-- Производство: США
Жанр: триллер, драма, криминал, детектив
Год выпуска: 1990-1991 гг.
Продолжительность: Сезон 1 (1x ~01:34:00 + 7x ~00:45:00), Сезон 2 (1x ~01:34:00 + 21x ~00:45:00)
Мировая премьера: 8 апреля 1990
Российская премьера: 4 ноября 1993
Перевод: Авторский (одноголосый, закадровый) [Ю.Сербин]
Оригинальный аудиопоток: английский
Режиссер: Дэвид Линч / David Lynch, Марк Фрост / Mark Frost, ...-В ролях: Кайл МакЛоклен, Майкл Онткин, Шерил Ли, Лара Флинн Бойл, Шерилин Фенн, Рэй Уайз, Мигель Феррер, Дэвид Линч, Билли Зейн, Хэзер Грэм-Описание: История начинается с известия о находке обнаженного тела Лоры Палмер, «завернутого в полиэтилен» и выброшенного волнами на берег озера. В ходе расследования перед внимательными взглядами агента Купера, шерифа Трумана и его помощников проходят разные жители Твин Пикс. Постепенно зритель открывает для себя темную и страшную сторону жизни обитателей на первый взгляд тихого и мирного городка.
- - -Качество видео: BDRip
Контейнер: MKV
Стандарт разрешения: 720p
Видео кодек: H.264/AVC
Аудио кодек: DTS
Видео: 960x720 at 23.976 fps, ~7500 - 9000 kbps avg
Аудио: Russian: 48 kHz, DTS, 3/2 (L,C,R,l,r) + LFE ch, ~1536.00 kbps avg - Юрий Сербин
Аудио #2: English: 48 kHz, DTS, 3/2 (L,C,R,l,r) + LFE ch, ~1536.00 kbps avg
Cубтитры: Russian (Киномания), Russian (Оборотень БОБ), English
00: Pilot / Пилот
01: Traces to Nowhere / Следы в никуда
02: Zen, or the Skill to Catch a Killer / Дзен, или Умение поймать убийцу
03: Rest in Pain / Покойся с болью
04: The One-Armed Man / Однорукий
05: Cooper's Dreams / Сны Купера
06: Realization Time / Время осмысления
07: The Last Evening / Последний вечер
01: May the Giant Be with You / Великан может быть с тобой
02: Coma / Кома
03: The Man Behind the Glass / Человек за стеклом
04: Laura's Secret Diary / Тайный дневник Лоры
05: The Orchid's Curse / Проклятие Орхидеи
06: Demons / Демоны
07: Lonely Souls / Одинокие души
08: Drive with a Dead Girl / Поездка с мёртвой девушкой
09: Arbitrary Law / Самосуд
10: Dispute Between Brothers / Спор между братьями
11: Masked Ball / Бал-маскарад
12: The Black Widow / Чёрная вдова
13: Checkmate / Шах и мат
14: Double Play / Двойная игра
15: Slaves and Masters / Рабы и хозяева
16: The Condemned Woman / Обречённая
17: Wounds and Scars / Раны и шрамы
18: On the Wings of Love / На крыльях любви
19: Variations and Relations / Перемены в расстановке сил
20: The Path to the Black Lodge / Тропа к Черному Вигваму
21: Miss Twin Peaks / Ночь решений
22: Beyond Life and Death / Между жизнью и смертью
• Ежегодно под Сиэтлом проходит слёт поклонников «Твин Пикса».
• В Германии при показе сериала разразился скандал. Телеканал RTL, выкупивший права на демонстрацию телепроекта, отменил показ на 21-ой серии. Виной тому стала подлая акция, организованная каналом-конкурентом SAT1. В эфире данного телеканала убийца Лоры Палмер был назван еще до запуска первой серии.
• Пилотный эпизод сериала длится два часа. Позднее, этот эпизод был разбит на две части. В европейских странах пилотный эпизод демонстрировался в кинотеатрах.
• В оригинальной версии сценария не существовало персонажа по имени Мадлен Фергюсон (кузина Лоры Палмер, сыгранная все той же актрисой — Шерил Ли). Дэвид Линч был настолько впечатлен игрой Шерил в качестве Лоры Палмер, что захотел продолжить работать с ней при создании новых серий.
• В качестве раскрутки проекта был подготовлен календарь на 1991 год с кадрами из «Твин Пикса», однако так и не был выпущен на рынок в связи с фотосессией Шерилин Фенн для журнала «Плейбой».
• Дэвид Линч и Марк Фрост планировали экранизировать биографию «Мэрилин Монро», вышедшую в свет под названием «Богиня». Однако, после неудачных попыток получить соответствующие права, они бросили эту затею, сумев перенести кое-какие наработки в сюжетную линию культового сериала. Таким образом, прототипом Лоры Палмер стала Мэрилин.
• Черновое название сериала — «Northwest Passage» (Северо-западный Пассаж).
• Во время записи некоторых сцен был применен достаточно необычный прием. Актеры заучивали свои реплики задом наперед. Впоследствии полученные записи голосов прокручивались в обратную сторону, в результате чего получалась членораздельная речь.
• В момент съемок сериала, численность населения городка Твин Пикс составляла 5,120 человек. С легкой подачи телеканала ABC экранная численность города увеличилась в 10 раз — до 51,201 человека.
• Кайл МакЛоклен, сыгравший роль агента ФБР Дэйла Купера, отказался развивать любовную линию своего персонажа с Одри Хорн (Шерилин Фенн), сославшись на то, что честный агент ФБР никогда не позволит себе иметь отношения с несовершеннолетней девушкой.
• В рамках производства были отсняты некоторые сцены, раскрывающие отношения между Джеймсом Херли (в исполнении Джеймса Маршалла) и его матерью, но так и не были включены в сериал.
• Видеоверсия пилотной серии имеет хронометраж 113 минут.
• Дочь Линча, Дженнифер — автор книги «Тайный дневник Лоры Палмер». А брат Марка Фроста, Скотт — автор «Воспоминаний специального агента ФБР Дэйла Купера». Книги были изданы на пике популярности сериала.
• В 2007 году журнал «Time» включил сериал в число Лучших ТВ-шоу всех времён.
• Чтобы зрителям было проще различать, в какой ипостаси предстает перед ними Шерил Ли, было принято решение о том, что Мадлен Фергюсон станет брюнеткой (в отличие от блондинки Лоры Палмер).
• В седьмой серии кто-то нападает на Джейкоби — эта тайна так и остается нераскрытой. Однако, по словам Марка Фроста, именно этот субъект является убийцей Лоры Палмер.
• Чтобы не допустить утечки информации, было отснято несколько вариантов сцены убийства Мэдлин Фергюсон. В частности, в одной из них убийцей Мэдди стал Бен Хорн. Впрочем, эта сцена никогда не демонстрировалась публике ни в телеэфире, ни в различных вариантах видео-релизов.
Код:
General
Complete name                    : J:\Uploads\Pirat.Ca\Twin Peaks (1990-1991)[720p.BluRay.Rus.Eng]\Season 1\Twin.Peaks.S01E01.720p.BluRay.Rus.Eng.HDCLUB.mkv
Format                           : Matroska
File size                        : 8.32 GiB
Duration                         : 1h 34mn
Overall bit rate                 : 12.7 Mbps
Movie name                       : Twin Peaks S01E01 - Pilot (1990-04-08)
Encoded date                     : UTC 2014-08-06 14:31:48
Writing application              : mkvmerge v7.0.0 ('Where We Going') 32bit built on Jun  9 2014 15:08:34
Writing library                  : libebml v1.3.0 + libmatroska v1.4.1
Video
ID                               : 1
Format                           : AVC
Format/Info                      : Advanced Video Codec
Format profile                   : [email protected]
Format settings, CABAC           : Yes
Format settings, ReFrames        : 12 frames
Muxing mode                      : Container [email protected]
Codec ID                         : V_MPEG4/ISO/AVC
Duration                         : 1h 34mn
Bit rate                         : 9 388 Kbps
Width                            : 960 pixels
Height                           : 720 pixels
Display aspect ratio             : 4:3
Frame rate                       : 23.976 fps
Color space                      : YUV
Chroma subsampling               : 4:2:0
Bit depth                        : 8 bits
Scan type                        : Progressive
Bits/(Pixel*Frame)               : 0.567
Stream size                      : 6.17 GiB (74%)
Title                            : Release for HDCLUB
Writing library                  : x264 core 133 r2334 a3ac64b
Encoding settings                : cabac=1 / ref=12 / deblock=1:-3:-3 / analyse=0x3:0x133 / me=umh / subme=10 / psy=1 / psy_rd=1.10:0.00 / mixed_ref=1 / me_range=24 / chroma_me=1 / trellis=2 / 8x8dct=1 / cqm=0 / deadzone=21,11 / fast_pskip=0 / chroma_qp_offset=-2 / threads=12 / lookahead_threads=2 / sliced_threads=0 / nr=0 / decimate=0 / interlaced=0 / bluray_compat=0 / constrained_intra=0 / bframes=8 / b_pyramid=2 / b_adapt=2 / b_bias=0 / direct=3 / weightb=1 / open_gop=0 / weightp=2 / keyint=250 / keyint_min=23 / scenecut=40 / intra_refresh=0 / rc_lookahead=60 / rc=crf / mbtree=0 / crf=17.5 / qcomp=0.70 / qpmin=0 / qpmax=69 / qpstep=4 / vbv_maxrate=50000 / vbv_bufsize=62500 / crf_max=0.0 / nal_hrd=none / ip_ratio=1.30 / pb_ratio=1.20 / aq=1:0.70
Language                         : English
Audio #1
ID                               : 2
Format                           : DTS
Format/Info                      : Digital Theater Systems
Codec ID                         : A_DTS
Duration                         : 1h 34mn
Bit rate mode                    : Constant
Bit rate                         : 1 510 Kbps
Channel(s)                       : 6 channels
Channel positions                : Front: L C R, Side: L R, LFE
Sampling rate                    : 48.0 KHz
Bit depth                        : 24 bits
Stream size                      : 1 016 MiB (12%)
Title                            : DTS 5.1 @ 1536 kbps - Ю.Сербин
Language                         : Russian
Audio #2
ID                               : 3
Format                           : DTS
Format/Info                      : Digital Theater Systems
Codec ID                         : A_DTS
Duration                         : 1h 34mn
Bit rate mode                    : Constant
Bit rate                         : 1 510 Kbps
Channel(s)                       : 6 channels
Channel positions                : Front: L C R, Side: L R, LFE
Sampling rate                    : 48.0 KHz
Bit depth                        : 24 bits
Stream size                      : 1 016 MiB (12%)
Title                            : DTS 5.1 @ 1536 kbps
Language                         : English
Text #1
ID                               : 4
Format                           : UTF-8
Codec ID                         : S_TEXT/UTF8
Codec ID/Info                    : UTF-8 Plain Text
Title                            : Киномания
Language                         : Russian
Text #2
ID                               : 5
Format                           : UTF-8
Codec ID                         : S_TEXT/UTF8
Codec ID/Info                    : UTF-8 Plain Text
Title                            : Оборотень БОБ
Language                         : Russian
Text #3
ID                               : 6
Format                           : UTF-8
Codec ID                         : S_TEXT/UTF8
Codec ID/Info                    : UTF-8 Plain Text
Language                         : English
Text #4
ID                               : 7
Format                           : UTF-8
Codec ID                         : S_TEXT/UTF8
Codec ID/Info                    : UTF-8 Plain Text
Title                            : SDH
Language                         : English
Menu
00:00:00.000                     : en:Chapter 1
00:15:30.513                     : en:Chapter 2
00:27:31.149                     : en:Chapter 3
00:44:14.527                     : en:Chapter 4
00:52:44.286                     : en:Chapter 5
01:01:42.991                     : en:Chapter 6
01:09:13.358                     : en:Chapter 7
01:20:28.782                     : en:Chapter 8
01:33:13.630                     : en:Chapter 9
Код:
General
Complete name                    : J:\Uploads\Pirat.Ca\Twin Peaks (1990-1991)[720p.BluRay.Rus.Eng]\Season 2\Twin.Peaks.S02E01.720p.BluRay.Rus.Eng.HDCLUB.mkv
Format                           : Matroska
File size                        : 7.24 GiB
Duration                         : 1h 34mn
Overall bit rate                 : 11.0 Mbps
Movie name                       : Twin Peaks S02E01 - May the Giant Be with You (1990-09-30)
Encoded date                     : UTC 2014-08-31 13:45:08
Writing application              : mkvmerge v7.0.0 ('Where We Going') 32bit built on Jun  9 2014 15:08:34
Writing library                  : libebml v1.3.0 + libmatroska v1.4.1
Video
ID                               : 1
Format                           : AVC
Format/Info                      : Advanced Video Codec
Format profile                   : [email protected]
Format settings, CABAC           : Yes
Format settings, ReFrames        : 12 frames
Muxing mode                      : Container [email protected]
Codec ID                         : V_MPEG4/ISO/AVC
Duration                         : 1h 34mn
Bit rate                         : 7 762 Kbps
Width                            : 960 pixels
Height                           : 720 pixels
Display aspect ratio             : 4:3
Frame rate                       : 23.976 fps
Color space                      : YUV
Chroma subsampling               : 4:2:0
Bit depth                        : 8 bits
Scan type                        : Progressive
Bits/(Pixel*Frame)               : 0.468
Stream size                      : 5.11 GiB (71%)
Title                            : Release for HDCLUB
Writing library                  : x264 core 133 r2334 a3ac64b
Encoding settings                : cabac=1 / ref=12 / deblock=1:-3:-3 / analyse=0x3:0x133 / me=umh / subme=10 / psy=1 / psy_rd=1.10:0.00 / mixed_ref=1 / me_range=24 / chroma_me=1 / trellis=2 / 8x8dct=1 / cqm=0 / deadzone=21,11 / fast_pskip=0 / chroma_qp_offset=-2 / threads=12 / lookahead_threads=2 / sliced_threads=0 / nr=0 / decimate=0 / interlaced=0 / bluray_compat=0 / constrained_intra=0 / bframes=8 / b_pyramid=2 / b_adapt=2 / b_bias=0 / direct=3 / weightb=1 / open_gop=0 / weightp=2 / keyint=250 / keyint_min=23 / scenecut=40 / intra_refresh=0 / rc_lookahead=60 / rc=crf / mbtree=0 / crf=17.5 / qcomp=0.70 / qpmin=0 / qpmax=69 / qpstep=4 / vbv_maxrate=50000 / vbv_bufsize=62500 / crf_max=0.0 / nal_hrd=none / ip_ratio=1.30 / pb_ratio=1.20 / aq=1:0.70
Language                         : English
Audio #1
ID                               : 2
Format                           : DTS
Format/Info                      : Digital Theater Systems
Codec ID                         : A_DTS
Duration                         : 1h 34mn
Bit rate mode                    : Constant
Bit rate                         : 1 510 Kbps
Channel(s)                       : 6 channels
Channel positions                : Front: L C R, Side: L R, LFE
Sampling rate                    : 48.0 KHz
Bit depth                        : 24 bits
Stream size                      : 1 017 MiB (14%)
Title                            : DTS 5.1 @ 1536 kbps - Ю.Сербин
Language                         : Russian
Audio #2
ID                               : 3
Format                           : DTS
Format/Info                      : Digital Theater Systems
Codec ID                         : A_DTS
Duration                         : 1h 34mn
Bit rate mode                    : Constant
Bit rate                         : 1 510 Kbps
Channel(s)                       : 6 channels
Channel positions                : Front: L C R, Side: L R, LFE
Sampling rate                    : 48.0 KHz
Bit depth                        : 24 bits
Stream size                      : 1 017 MiB (14%)
Title                            : DTS 5.1 @ 1536 kbps
Language                         : English
Text #1
ID                               : 4
Format                           : UTF-8
Codec ID                         : S_TEXT/UTF8
Codec ID/Info                    : UTF-8 Plain Text
Title                            : Киномания
Language                         : Russian
Text #2
ID                               : 5
Format                           : UTF-8
Codec ID                         : S_TEXT/UTF8
Codec ID/Info                    : UTF-8 Plain Text
Title                            : Оборотень БОБ
Language                         : Russian
Text #3
ID                               : 6
Format                           : UTF-8
Codec ID                         : S_TEXT/UTF8
Codec ID/Info                    : UTF-8 Plain Text
Language                         : English
Text #4
ID                               : 7
Format                           : UTF-8
Codec ID                         : S_TEXT/UTF8
Codec ID/Info                    : UTF-8 Plain Text
Title                            : SDH
Language                         : English
Menu
00:00:00.000                     : en:Chapter 1
00:22:14.208                     : en:Chapter 2
00:32:55.140                     : en:Chapter 3
00:42:45.980                     : en:Chapter 4
00:59:21.850                     : en:Chapter 5
01:08:45.288                     : en:Chapter 6
01:18:21.447                     : en:Chapter 7
01:33:07.999                     : en:Chapter 8
Download / Скачать

Хотите скачать бесплатно? Зарегистрируйтесь на сайте (ссылка на регистрацию). Pirat.ca - самый быстрый торрент трекер в рунете!

Как скачивать  ·   Что такое торрент  ·   Рейтинг и ограничения



Последний раз редактировалось: TERMOS (2014-09-02 17:04), всего редактировалось 2 раз(а)

TERMOS ®

Легенда

19549

Пост 30-Авг-2014 20:47 (спустя 1 минута)

[Q] 

Второй сезон добавлю позже...

_________________
[Профиль]  [ЛС] 

TERMOS ®

Легенда

19549

Пост 02-Сен-2014 17:06 (спустя 2 дня 20 часов)

[Q] 

Добавлен второй сезон. Теперь весь сериал. az Обновите торрент-файл!

_________________
[Профиль]  [ЛС] 

olipov

Легенда

Пост 14-Окт-2014 11:03 (спустя 1 месяц 11 дней)

[Q] 

спасибо за труд
[Профиль]  [ЛС] 
Показать сообщения:    
Ответить на тему

Текущее время: Сегодня 17:07

Часовой пояс: GMT + 4



Вы не можете начинать темы
Вы не можете отвечать на сообщения
Вы не можете редактировать свои сообщения
Вы не можете удалять свои сообщения
Вы не можете голосовать в опросах
Вы не можете прикреплять файлы к сообщениям
Вы не можете скачивать файлы

▼ Вниз