Уважаемый Гость!
Вы можете поддержать проект и зарегистрироваться у наших партнеров - онлайн-стратегия MyLands. При регистрации в игре Вы получите код, который сможете активировать после регистрации на pirat.ca и получить 1000 дублонов.

Ваш код:
dc2cb6d4320aabb382c28080b38755f4c69415fa
 
     

Подпольная империя / Boardwalk Empire / Сезон: 5 / Серии: 1-8 (8) (Тимоти Ван Паттен / Timothy Van Patten, ...) [2014 г., драма, криминал, HDTVRip, 720p] MVO (АРК-ТВ) + AVO (Ю. Сербин) + Original (Eng) + Sub (Rus, Eng)

Ответить на тему
 
Автор
Сообщение

Пост 13-Сен-2014 07:44

[Q] 

TERMOS

Легенда

-Подпольная империя / Boardwalk Empire
«Atlantic City, 1920. When alcohol was outlawed, outlaws became kings.»
(5 сезон)
-- Производство: США
Жанр: драма, криминал
Год выпуска: 2014 г.
Продолжительность: 8х ~01:00:00
Мировая премьера: 19 сентября 2010
Российская премьера: 8 ноября 2010
Перевод: Профессиональный (многоголосый, закадровый) [АРК-ТВ]
Перевод 2: Авторский (одноголосый, закадровый) [Ю. Сербин]
Оригинальный аудиопоток: английский
Режиссер: Тимоти Ван Паттен / Timothy Van Patten, Аллен Култер / Allen Coulter , Джереми Подесва / Jeremy Podeswa-В ролях: Стив Бушеми, Майкл Питт, Келли Макдоналд, Майкл Шеннон, Ши Уигхэм, Алекса Палладино, Майкл Стулбарг, Стивен Грэм, Винсент Пьяцца, Джек Хьюстон, Майкл К. Уильямс, Энтони Лакиура, Пол Спаркс, Гретхен Мол, Люси Галина, Джози Галина, Деклан Мактик, Рори Мактик, Брэйди Нун, Коннор Нун, Пас де ла Уэрта, Дэбни Коулмэн, Чарли Кокс, Анатол Юсеф, Виктор Верхак, Роберт Клохесси, Кевин О’Рурк, Хезер Линд, Уильям Хилл, Адам Муччи, Эдвард МакГинти, Бобби Каннавейл, Грег Антоначчи, Жаклин Пеннвилль, Пол Джуд Летерски.-Описание: Прошло 7 лет с тех пор, как мы в последний раз видели Наки Томпсона (Стив Бушеми). Великая Депрессия окончена. Наступили новые времена, и в них уже нет места непотопляемому королю Атлантик-Сити и его подпольной империи. Ему предстоит принять свой последний бой.
- - -Качество видео: HDTVRip
Контейнер: MKV
Стандарт разрешения: 720p
Видео кодек: H.264/AVC
Аудио кодек: AC3
Видео: 1280x714 at 23.976 fps, ~5100 kbps avg
Аудио: Russian: 48 kHz, AC3, 3/2 (L,C,R,l,r) + LFE ch, ~384.00 kbps avg |Многоголосый закадровый, АРК-ТВ по заказу Amedia (только в 1-й и 2-й серии)|
Аудио #2: Russian: 48 kHz, AC3, 3/2 (L,C,R,l,r) + LFE ch, ~384.00 kbps avg |Одноголосый закадровый, Ю. Сербин|
Аудио #3: English: 48 kHz, AC3, 3/2 (L,C,R,l,r) + LFE ch, ~384.00 kbps avg
Cубтитры: Russian (Amedia) (только в 1-й и 2-й серии), English, English (SDH)
• Внимание!!! В переводе присутствует ненормативная лексика!
• Перевод Ю.Сербина осуществлен в рамках сервиса "Озвучивание". Спонсоры: rubak, kuryha, SAid79, Loki1982, Juve, volkovei, vadiz, Kain_Rasiel, Confidence, Kashima, hardkatok, Tucha, ray_hollis, tambov68, димон197, SckraT, JaSoN174, Maike, amlor, Delta1718, r0mka, ochkarik1, Serg2002, aries17, saab_01, pakhomov, kirusha27, gurupatic, ts7, melo, Julian.
Эпизод 1: Golden Days for Boys and Girls
Эпизод 2: The Good Listener
Эпизод 3: What Jesus Said
Эпизод 4: Cuanto
Эпизод 5: King of Norway
Эпизод 6: Devil You Know
Эпизод 7: Friendless Child
Эпизод 8: Eldorado
Код:
General
Complete name                    : Y:\Uploads\Pirat.Ca\Boardwalk Empire - Season 05 (2014)[720p.HDTVRip]\Boardwalk.Empire.S05E01.720p.HDTV.DD5.1.x264-HDCLUB.mkv
Format                           : Matroska
File size                        : 2.70 GiB
Duration                         : 59mn 52s
Overall bit rate                 : 6 468 Kbps
Movie name                       : Boardwalk.Empire.S05E01.REPACK.720p.HDTV.DD5.1.x264-CasStudio
Encoded date                     : UTC 2014-09-18 11:46:48
Writing application              : mkvmerge v6.0.0 ('Coming Up For Air') built on Jan 20 2013 09:52:00
Writing library                  : libebml v1.3.0 + libmatroska v1.4.0
Cover                            : Cover
Video
ID                               : 1
Format                           : AVC
Format/Info                      : Advanced Video Codec
Format profile                   : [email protected]
Format settings, CABAC           : Yes
Format settings, ReFrames        : 9 frames
Format settings, GOP             : M=3, N=32
Muxing mode                      : Container [email protected]
Codec ID                         : V_MPEG4/ISO/AVC
Duration                         : 59mn 52s
Bit rate                         : 5 187 Kbps
Width                            : 1 280 pixels
Height                           : 714 pixels
Display aspect ratio             : 16:9
Frame rate                       : 23.976 fps
Color space                      : YUV
Chroma subsampling               : 4:2:0
Bit depth                        : 8 bits
Scan type                        : Progressive
Bits/(Pixel*Frame)               : 0.237
Stream size                      : 2.17 GiB (80%)
Writing library                  : x264 core 142 r2453kMod ea0ca51
Encoding settings                : cabac=1 / ref=9 / deblock=1:-3:-3 / analyse=0x3:0x113 / me=umh / subme=11 / psy=1 / fade_compensate=0.00 / psy_rd=1.00:0.05 / mixed_ref=1 / me_range=32 / chroma_me=1 / trellis=2 / 8x8dct=1 / cqm=0 / deadzone=21,11 / fast_pskip=0 / chroma_qp_offset=-4 / threads=12 / lookahead_threads=2 / sliced_threads=0 / nr=0 / decimate=1 / interlaced=0 / bluray_compat=0 / constrained_intra=0 / fgo=0 / bframes=9 / b_pyramid=2 / b_adapt=2 / b_bias=0 / direct=3 / weightb=1 / open_gop=0 / weightp=2 / keyint=230 / keyint_min=23 / scenecut=40 / intra_refresh=0 / rc_lookahead=40 / rc=crf / mbtree=0 / crf=17.5000 / qcomp=0.65 / qpmin=0 / qpmax=69 / qpstep=4 / vbv_maxrate=50000 / vbv_bufsize=62500 / crf_max=0.0 / nal_hrd=none / filler=0 / ip_ratio=1.40 / pb_ratio=1.30 / aq=3:0.85
Language                         : English
Audio #1
ID                               : 2
Format                           : AC-3
Format/Info                      : Audio Coding 3
Mode extension                   : CM (complete main)
Codec ID                         : A_AC3
Duration                         : 59mn 52s
Bit rate mode                    : Constant
Bit rate                         : 384 Kbps
Channel(s)                       : 6 channels
Channel positions                : Front: L C R, Side: L R, LFE
Sampling rate                    : 48.0 KHz
Bit depth                        : 16 bits
Stream size                      : 164 MiB (6%)
Title                            : DD 5.1 Amedia
Language                         : Russian
Audio #2
ID                               : 3
Format                           : AC-3
Format/Info                      : Audio Coding 3
Mode extension                   : CM (complete main)
Codec ID                         : A_AC3
Duration                         : 59mn 52s
Bit rate mode                    : Constant
Bit rate                         : 384 Kbps
Channel(s)                       : 6 channels
Channel positions                : Front: L C R, Side: L R, LFE
Sampling rate                    : 48.0 KHz
Bit depth                        : 16 bits
Stream size                      : 164 MiB (6%)
Title                            : AVO (Ю. Сербин)
Language                         : Russian
Audio #3
ID                               : 4
Format                           : AC-3
Format/Info                      : Audio Coding 3
Mode extension                   : CM (complete main)
Codec ID                         : A_AC3
Duration                         : 59mn 52s
Bit rate mode                    : Constant
Bit rate                         : 384 Kbps
Channel(s)                       : 2 channels
Channel positions                : Front: L R
Sampling rate                    : 48.0 KHz
Bit depth                        : 16 bits
Stream size                      : 164 MiB (6%)
Title                            : DD 5.1 Original
Language                         : English
Text #1
ID                               : 5
Format                           : UTF-8
Codec ID                         : S_TEXT/UTF8
Codec ID/Info                    : UTF-8 Plain Text
Title                            : Full Amedia
Language                         : Russian
Text #2
ID                               : 6
Format                           : UTF-8
Codec ID                         : S_TEXT/UTF8
Codec ID/Info                    : UTF-8 Plain Text
Title                            : Full
Language                         : English
Text #3
ID                               : 7
Format                           : UTF-8
Codec ID                         : S_TEXT/UTF8
Codec ID/Info                    : UTF-8 Plain Text
Title                            : Full SDH
Language                         : English
Download / Скачать

Хотите скачать бесплатно? Зарегистрируйтесь на сайте (ссылка на регистрацию). Pirat.ca - самый быстрый торрент трекер в рунете!

Как скачивать  ·   Что такое торрент  ·   Рейтинг и ограничения



Последний раз редактировалось: TERMOS (2014-11-02 15:28), всего редактировалось 8 раз(а)

Пост 13-Сен-2014 14:39 (спустя 6 часов)

Топик был перенесен из форума Зарубежные сериалы (Трюм) в форум Сериалы с Авторским переводом (DVD / HD)
kugesan
 

Котя1

Лоцман

Пост 13-Сен-2014 16:54 (спустя 9 часов)

[Q] 

Человек - сигарета
[Профиль]  [ЛС] 

Vintorezov REG 39

Гроза морей

176

Пост 13-Сен-2014 20:42 (спустя 3 часа)

[Q] 

Как сериал стоящий или так себе ???? :59:
[Профиль]  [ЛС] 

TERMOS ®

Легенда

19664

Пост 18-Сен-2014 15:17 (спустя 4 дня)

[Q] 

Раздача полностью обновлена: добавлена 2-я серия, рип 1-ой серии заменен на более качественный. Обновите торрент-файл!

_________________
[Профиль]  [ЛС] 

Vintorezov REG 39

Гроза морей

176

Пост 18-Сен-2014 15:19 (спустя 1 минута)

[Q] 

Не нравится мне одноголосый переводы
[Профиль]  [ЛС] 

TERMOS ®

Легенда

19664

Пост 18-Сен-2014 15:23 (спустя 4 минуты)

[Q] 

Vintorezov REG 39, так тут и многоголоска есть... ad

_________________
[Профиль]  [ЛС] 

[email protected].ru

Корсар

Пост 18-Сен-2014 18:05 (спустя 2 часа 42 минуты)

[Q] 

спасибо! сериал кстати один из лучших на криминальную тему, романтик тридцатых и ярого бутлегерства.
[Профиль]  [ЛС] 

TERMOS ®

Легенда

19664

Пост 18-Сен-2014 18:39 (спустя 34 минуты)

[Q] 

581721спасибо! сериал кстати один из лучших на криминальную тему, романтик тридцатых и ярого бутлегерства.
В точку!

_________________
[Профиль]  [ЛС] 

MaXoR

Гроза морей

1533

Пост 18-Сен-2014 19:03 (спустя 23 минуты)

[Q] 

580043Как сериал стоящий или так себе ???? :59:
Отличный сериал! Атмосферный и бескомпромиссный, местами жесткий). Смотри с 1 сезона, тогда всю цепочку сюжета поймешь нормально.
Спасибо!!! Автору респект!!!

_________________
Живы будем - не помрем!
[Профиль]  [ЛС] 

TERMOS ®

Легенда

19664

Пост 01-Окт-2014 05:26 (спустя 12 дней)

[Q] 

Добавлены 3-4-я серии. Пока только с переводом Ю. Сербина. Обновите торрент-файл!

_________________
[Профиль]  [ЛС] 

TERMOS ®

Легенда

19664

Пост 09-Окт-2014 17:23 (спустя 8 дней)

[Q] 

MaXoR, az
Добавлена 5-я серия. И тоже пока только с переводом Ю. Сербина. Обновите торрент-файл!

_________________
[Профиль]  [ЛС] 

TERMOS ®

Легенда

19664

Пост 17-Окт-2014 05:19 (спустя 7 дней)

[Q] 

Добавлена 6-я серия. Обновите торрент-файл!

_________________
[Профиль]  [ЛС] 

Steel15

Морской Волк

Пост 17-Окт-2014 20:34 (спустя 15 часов)

[Q] 

Спасибо!!! Автору респект!!!
[Профиль]  [ЛС] 

TERMOS ®

Легенда

19664

Пост 23-Окт-2014 14:43 (спустя 5 дней)

[Q] 

Steel15, az
Добавлена 7-я серия. Обновите торрент-файл!

_________________
[Профиль]  [ЛС] 

TERMOS ®

Легенда

19664

Пост 02-Ноя-2014 15:26 (спустя 10 дней)

[Q] 

Добавлена 8-я серия. 7-я серия перемуксирована. Финал сезона и сериала! az Обновите торрент-файл!

_________________
[Профиль]  [ЛС] 

balamutych 8

Корсар

Пост 05-Ноя-2014 18:11 (спустя 3 дня)

[Q] 

Огромное спасибо.
[Профиль]  [ЛС] 
Показать сообщения:    
Ответить на тему

Текущее время: Сегодня 13:06

Часовой пояс: GMT + 4



Вы не можете начинать темы
Вы не можете отвечать на сообщения
Вы не можете редактировать свои сообщения
Вы не можете удалять свои сообщения
Вы не можете голосовать в опросах
Вы не можете прикреплять файлы к сообщениям
Вы не можете скачивать файлы

▼ Вниз