Уважаемый Гость!
Вы можете поддержать проект и зарегистрироваться у наших партнеров - онлайн-стратегия MyLands. При регистрации в игре Вы получите код, который сможете активировать после регистрации на pirat.ca и получить 1000 дублонов.

Ваш код:
dc2cb6d4320aabb382c28080b38755f4c69415fa
 
     

Во все тяжкие / Breaking Bad / Сезон: 1 / Серии: 1-7 (7) (Адам Бернштейн / Adam Bernstein) [2008 г., криминал, драма, триллер, BDRip, 1080p] MVO(LostFilm, Foxcrime, Inter) + DVO(Кубик в Кубе) + AVO(Сербин) + VO(Foxlight) + Original(Eng) + Sub(Rus, En

Ответить на тему
 
Автор
Сообщение

Пост 04-Окт-2014 16:17

[Q] 

TERMOS

Легенда

-Во все тяжкие / Breaking Bad
(1 сезон)
-- Производство: США
Жанр: триллер, драма, криминал
Год выпуска: 2008 г.
Продолжительность серии: ~00:48:00
Мировая премьера: 20 января 2008
Российская премьера: 17 марта 2011
Перевод: Профессиональный (двухголосый закадровый) [Кубик в Кубе]
Перевод 2: Авторский (одноголосый закадровый) [Ю. Сербин]
Перевод 3: Профессиональный (многоголосый закадровый) [LostFilm]
Перевод 4: Профессиональный (многоголосый закадровый) [Foxcrime]
Перевод 5: Профессиональный (одноголосый закадровый) [Foxlight]
Перевод 6: Профессиональный (многоголосый закадровый) [Inter]
Оригинальный аудиопоток: английский
Режиссер: Адам Бернштейн / Adam Bernstein-В ролях: Брайан Крэнстон, Анна Ганн, Аарон Пол, Дин Норрис, Бетси Брандт, Эр Джей, Стивен Майкл Квезада, Кристен Риттер, Дэвид Хаус, Кармен Серано-Описание: Уолтер Уайт, преподаватель химии в университе. У него есть жена и сын-инвалид, жена ждет еще одного ребенка. Уолт уже не молод и в этом возрасте часто бывают кризисы, тем более нужно кормить семью, а на зарплату преподавателя не разгуляешься, поэтому он вынужден подрабатывать на автомойке, где его же студенты над ним насмехаются, а еще сын, чью инвалидность тоже постоянно осмеивают.
    Его свояк работает в Управлении по борьбе с наркотиками и однажды предлагает поучаствовать в облаве на дом, где находится лаборатория по приготовлению метамфентамина. Во время облавы Уолт случайно видит, как один дилер сбегает от облавы, им оказывается его бывший студент.
    Уолт решает заняться с ним бизнесом про приготовлению метамфетамина, так как он на изломе, что ему терять: он бросил работу на автомойке, секс с женой ограничивается только рукоблудием с ее стороны, ему поставили диагноз — неоперабельный рак легких, да и свояк постоянно говорит, что метамфетамин приносит огромные деньги. Кто еще может приготовить чистейший метамфетамин, как не учитель химии?
    Уолт и его напарник снимают трейлер и организуют там лабораторию, уехав перед тем в пустыню, подальше от глаз. Первая партия готова, напарник Уолта, Джесси идет ее реализовывать…
- -Качество видео: BDRip
Контейнер: MKV
Стандарт разрешения: 1080p
Видео кодек: H.264/AVC
Аудио кодек: DTS, AC3
Видео: 1916x1080 (16:9), 23.976 fps, ~17.5 Mbps avg
Аудио: (RUS) 48 kHz, DTS, 5.1 ch, ~1510 kbps|Двухголосый закадровый, Кубик в Кубе|
Аудио #2: (RUS) 48 kHz, DTS, 5.1 ch, ~1510 kbps|Авторский одноголосый, Ю. Сербин|
Аудио #3: (RUS) 48 kHz, DTS, 5.1 ch, ~1510 kbps|Многоголосый закадровый, LostFilm|
Аудио #4: (RUS) 48 kHz, DTS, 5.1 ch, ~1510 kbps|Многоголосый закадровый, Foxcrime|
Аудио #5: (RUS) 48 kHz, AC3, 5.1 ch, ~640.00 kbps avg |Одноголосый закадровый, Foxlight(1001cinema)|
Аудио #6: (UKR) 48 kHz, AC3, 2/0 (L,R) ch, ~192.00 kbps avg |Многоголосый закадровый, Inter|
Аудио #7: (ENG) 48 kHz, DTS, 5.1 ch, ~1510 kbps Original
Аудио #8: (ENG) 48 kHz, AC3, 2/0 (L,R) ch, ~192.00 kbps avg |Commentary|
Cубтитры: Russian (Forced, Full), English
Аудиодорожки 1, 3, 4 получены путем извлечения ядра DTS-HD MA из ремуксов hdclub.
Субтитры форсированные на надписи и полные от lostrator.
Особую благодарность выражаю автору релиза fluder.
За дороги Юрия Сербина спасибо меценатам клуба Е-180.
Episode 1: Pilot / Пилот
Episode 2: Cat's in the Bag... / Шила в мешке не утаишь...
Episode 3: ...And the Bag's in the River / ... и мешок за спиной тоже
Episode 4: Cancer Man / Человек с раком легких
Episode 5: Gray Matter / Серое вещество
Episode 6: Crazy Handful of Nothin' / Ошалелый блеф
Episode 7: A No-Rough-Stuff-Type Deal / Прожжённые наркодельцы
Код:
General
Complete name                    : U:\Uploads\Pirat.Ca\Breaking Bad - Season 1 (2008)[BDRip.1080p]\Breaking.Bad.S01E01.1080p.BluRay.mkv
Format                           : Matroska
File size                        : 11.7 GiB
Duration                         : 58mn 6s
Overall bit rate                 : 28.7 Mbps
Movie name                       : Breaking Bad S01E01 - Pilot
Encoded date                     : UTC 2014-09-15 12:38:30
Writing application              : mkvmerge v2.0.2 ('You're My Flame') built on Feb 21 2007 23:40:55
Writing library                  : libebml v0.7.7 + libmatroska v0.8.1
Video
ID                               : 1
Format                           : AVC
Format/Info                      : Advanced Video Codec
Format profile                   : [email protected]
Format settings, CABAC           : Yes
Format settings, ReFrames        : 4 frames
Format settings, GOP             : M=1, N=16
Muxing mode                      : Container [email protected]
Codec ID                         : V_MPEG4/ISO/AVC
Duration                         : 58mn 6s
Bit rate                         : 19.6 Mbps
Width                            : 1 916 pixels
Height                           : 1 080 pixels
Display aspect ratio             : 16:9
Frame rate                       : 23.976 fps
Color space                      : YUV
Chroma subsampling               : 4:2:0
Bit depth                        : 8 bits
Scan type                        : Progressive
Bits/(Pixel*Frame)               : 0.394
Stream size                      : 7.94 GiB (68%)
Writing library                  : x264 core 120 r2120 0c7dab9
Encoding settings                : cabac=1 / ref=4 / deblock=1:-3:-3 / analyse=0x3:0x113 / me=umh / subme=10 / psy=1 / psy_rd=0.90:0.00 / mixed_ref=1 / me_range=32 / chroma_me=1 / trellis=2 / 8x8dct=1 / cqm=0 / deadzone=21,11 / fast_pskip=1 / chroma_qp_offset=-2 / threads=6 / sliced_threads=0 / nr=0 / decimate=1 / interlaced=0 / bluray_compat=0 / constrained_intra=0 / bframes=8 / b_pyramid=2 / b_adapt=2 / b_bias=0 / direct=3 / weightb=1 / open_gop=0 / weightp=2 / keyint=250 / keyint_min=23 / scenecut=40 / intra_refresh=0 / rc_lookahead=60 / rc=crf / mbtree=1 / crf=17.5 / qcomp=0.60 / qpmin=0 / qpmax=69 / qpstep=4 / vbv_maxrate=50000 / vbv_bufsize=62500 / crf_max=0.0 / nal_hrd=none / ip_ratio=1.40 / aq=1:0.70
Language                         : English
Audio #1
ID                               : 2
Format                           : DTS
Format/Info                      : Digital Theater Systems
Codec ID                         : A_DTS
Duration                         : 58mn 6s
Bit rate mode                    : Constant
Bit rate                         : 1 510 Kbps
Channel(s)                       : 6 channels
Channel positions                : Front: L C R, Side: L R, LFE
Sampling rate                    : 48.0 KHz
Bit depth                        : 24 bits
Stream size                      : 627 MiB (5%)
Title                            : Кубик в Кубе [DTS 6ch 1509 kbps]
Language                         : Russian
Audio #2
ID                               : 3
Format                           : DTS
Format/Info                      : Digital Theater Systems
Codec ID                         : A_DTS
Duration                         : 58mn 6s
Bit rate mode                    : Constant
Bit rate                         : 1 510 Kbps
Channel(s)                       : 6 channels
Channel positions                : Front: L C R, Side: L R, LFE
Sampling rate                    : 48.0 KHz
Bit depth                        : 24 bits
Stream size                      : 627 MiB (5%)
Title                            : Сербин [DTS 6ch 1509 kbps]
Language                         : Russian
Audio #3
ID                               : 4
Format                           : DTS
Format/Info                      : Digital Theater Systems
Codec ID                         : A_DTS
Duration                         : 58mn 6s
Bit rate mode                    : Constant
Bit rate                         : 1 510 Kbps
Channel(s)                       : 6 channels
Channel positions                : Front: L C R, Side: L R, LFE
Sampling rate                    : 48.0 KHz
Bit depth                        : 24 bits
Stream size                      : 627 MiB (5%)
Title                            : Lostfilm [DTS 6ch 1509 kbps]
Language                         : Russian
Audio #4
ID                               : 5
Format                           : DTS
Format/Info                      : Digital Theater Systems
Codec ID                         : A_DTS
Duration                         : 58mn 6s
Bit rate mode                    : Constant
Bit rate                         : 1 510 Kbps
Channel(s)                       : 6 channels
Channel positions                : Front: L C R, Side: L R, LFE
Sampling rate                    : 48.0 KHz
Bit depth                        : 24 bits
Stream size                      : 627 MiB (5%)
Title                            : FoxCrime [DTS 6ch 1509 kbps]
Language                         : Russian
Audio #5
ID                               : 6
Format                           : AC-3
Format/Info                      : Audio Coding 3
Mode extension                   : CM (complete main)
Codec ID                         : A_AC3
Duration                         : 58mn 6s
Bit rate mode                    : Constant
Bit rate                         : 640 Kbps
Channel(s)                       : 6 channels
Channel positions                : Front: L C R, Side: L R, LFE
Sampling rate                    : 48.0 KHz
Bit depth                        : 16 bits
Stream size                      : 266 MiB (2%)
Title                            : Foxlight [AC3 6ch 640 kbps]
Language                         : Russian
Audio #6
ID                               : 7
Format                           : AC-3
Format/Info                      : Audio Coding 3
Mode extension                   : CM (complete main)
Codec ID                         : A_AC3
Duration                         : 58mn 6s
Bit rate mode                    : Constant
Bit rate                         : 192 Kbps
Channel(s)                       : 2 channels
Channel positions                : Front: L R
Sampling rate                    : 48.0 KHz
Bit depth                        : 16 bits
Stream size                      : 79.8 MiB (1%)
Title                            : Интер [AC3 2ch 192 kbps]
Language                         : Ukrainian
Audio #7
ID                               : 8
Format                           : DTS
Format/Info                      : Digital Theater Systems
Codec ID                         : A_DTS
Duration                         : 58mn 6s
Bit rate mode                    : Constant
Bit rate                         : 1 510 Kbps
Channel(s)                       : 6 channels
Channel positions                : Front: L C R, Side: L R, LFE
Sampling rate                    : 48.0 KHz
Bit depth                        : 24 bits
Stream size                      : 627 MiB (5%)
Title                            : Оригинал [DTS 6ch 1509 kbps]
Language                         : English
Audio #8
ID                               : 9
Format                           : AC-3
Format/Info                      : Audio Coding 3
Mode extension                   : CM (complete main)
Codec ID                         : A_AC3
Duration                         : 58mn 6s
Bit rate mode                    : Constant
Bit rate                         : 192 Kbps
Channel(s)                       : 2 channels
Channel positions                : Front: L R
Sampling rate                    : 48.0 KHz
Bit depth                        : 16 bits
Stream size                      : 79.8 MiB (1%)
Title                            : Commentary
Language                         : English
Text #1
ID                               : 10
Format                           : ASS
Codec ID                         : S_TEXT/ASS
Codec ID/Info                    : Advanced Sub Station Alpha
Title                            : Forced
Language                         : Russian
Text #2
ID                               : 11
Format                           : ASS
Codec ID                         : S_TEXT/ASS
Codec ID/Info                    : Advanced Sub Station Alpha
Language                         : Russian
Text #3
ID                               : 12
Format                           : UTF-8
Codec ID                         : S_TEXT/UTF8
Codec ID/Info                    : UTF-8 Plain Text
Title                            : English (SDH)
Language                         : English
Download / Скачать

Хотите скачать бесплатно? Зарегистрируйтесь на сайте (ссылка на регистрацию). Pirat.ca - самый быстрый торрент трекер в рунете!

Как скачивать  ·   Что такое торрент  ·   Рейтинг и ограничения



Последний раз редактировалось: TERMOS (2014-10-05 23:45), всего редактировалось 3 раз(а)

kassa

Штурман

Пост 04-Окт-2014 18:25 (спустя 2 часа 7 минут)

[Q] 

Слышал об этом фильме довольно давно, теперь посмотрю в метро на телефоне =)
[Профиль]  [ЛС] 

[email protected].ru

Корсар

Пост 04-Окт-2014 19:31 (спустя 1 час 5 минут)

[Q] 

топор под лавкой тоже пожалуйста выложите, все сезоны.
[Профиль]  [ЛС] 

Scorefan

Пост 04-Окт-2014 19:42 (спустя 11 минут)

[Q] 

Зачем было все дорожки выбрасывать из релиза хдтрекера? Ладно еще смотреть с дорожкой лост, вкусы у всех разные, это понятно. Но оставлять ее единственной в 1080 рипах - это надругательство над данным сериалом.
[Профиль]  [ЛС] 

TUS7884

Флибустьер

Пост 04-Окт-2014 19:55 (спустя 13 минут)

[Q] 

Это самый лучший сериал !!!! только лучше смотреть с переводом кубик в кубе))))
[Профиль]  [ЛС] 

TUS7884

Флибустьер

Пост 05-Окт-2014 01:01 (спустя 5 часов)

[Q] 

Я смотрел это сериал в периоде от Lost, а потом от кубиков))) и от кубиков он намного прикольнее))))
[Профиль]  [ЛС] 

TERMOS ®

Легенда

19664

Пост 05-Окт-2014 10:16 (спустя 9 часов)

[Q] 

По просьбе автора в ближайшее время раздача будет обновлена до исходной.

_________________
[Профиль]  [ЛС] 

Пост 05-Окт-2014 23:04 (спустя 12 часов)

Топик был перенесен из форума Зарубежные сериалы в форум Сериалы с Авторским переводом (Трюм)
TERMOS
 

Пост 05-Окт-2014 23:13 (спустя 12 часов)

Топик был перенесен из форума Сериалы с Авторским переводом (Трюм) в форум Сериалы с Авторским переводом (DVD / HD)
gross1978
 

Tosha

Флибустьер

111

Пост 06-Окт-2014 00:42 (спустя 14 часов)

[Q] 

В свое время так знакомые его хвалили
за авторский перевод отдельное Спасибо!!!
Лови бочку

_________________
Выполняем ремонт любой сложности!
Бытовая техника, мясорубки, кофе-машины, парогенераторы, РЕМОНТ КОМПЬЮТЕРОВ И НОУТБУКОВ
ООО "Гарант" http://GARANTREM.RU ключ на XPsp3
RH
GJC-9CPJC-8M8F6-KYXCP-FRGC6
[Профиль]  [ЛС] 

cimi

Флибустьер

Пост 15-Окт-2014 19:50 (спустя 9 дней)

[Q] 

А где сидеры? Я думал будет больше ажиотажа и 1080 будут расхватывать как горячие пирожки.
Termos, вернись на раздачу, ставлю пиво. az
Добавлено спустя 3 минуты 43 секунды:
О! Лихо! Через 30 секунд... 32

_________________
[Профиль]  [ЛС] 

TERMOS ®

Легенда

19664

Пост 16-Окт-2014 20:16 (спустя 1 день)

[Q] 

cimi, здесь я, здесь... Только вот похоже всем 720р хватает. Не знаю, заливать ли далее...

_________________
[Профиль]  [ЛС] 

pirat.ca.com

Пост 18-Дек-2014 02:49 (спустя 2 месяца 1 день)

[Q] 

TERMOS, Я сериал посмотрел полностью очень давно, и он мне понравился, сейчас появилась техническая возможность смотреть на хорошем экране в full HD разрешении, и поэтому хотелось бы для коллекции скачать себе в отличном качестве рип. Но вот если я уже посмотрел сериал, зачем мне только один первый сезон скачивать, если остальные выкладывать в этом формате не планируется? Задумайтесь, от того то и желающих качать не много!!!
Нужны все сезоны, а не один первый.
[Профиль]  [ЛС] 

pirat.ca.com

Пост 18-Дек-2014 23:34 (спустя 20 часов)

[Q] 

TERMOS,
Жду с нетерпением остальных сезонов!!!
[Профиль]  [ЛС] 

TERMOS ®

Легенда

19664

Пост 15-Янв-2015 22:46 (спустя 27 дней)

[Q] 

pirat.ca.com, а вам зачем?))
Зарегистрирован: 2014-12-18 03:45
Последний визит: 2014-12-31 08:52
Последняя активность: 2015-01-01 01:52

_________________
[Профиль]  [ЛС] 

De1my

Лоцман

Пост 07-Фев-2015 12:37 (спустя 22 дня)

[Q] 

Невозможно загрузить: торрент неверно закодирован!
bc
[Профиль]  [ЛС] 

b1ohazard86

Морской Волк

13

Пост 05-Июн-2015 06:16 (спустя 3 месяца 25 дней)

[Q] 

Спасибо, скачал и посмотрел))
[Профиль]  [ЛС] 
Показать сообщения:    
Ответить на тему

Текущее время: Сегодня 12:53

Часовой пояс: GMT + 4



Вы не можете начинать темы
Вы не можете отвечать на сообщения
Вы не можете редактировать свои сообщения
Вы не можете удалять свои сообщения
Вы не можете голосовать в опросах
Вы не можете прикреплять файлы к сообщениям
Вы не можете скачивать файлы

▼ Вниз