Уважаемый Гость!
Вы можете поддержать проект и зарегистрироваться у наших партнеров - онлайн-стратегия MyLands. При регистрации в игре Вы получите код, который сможете активировать после регистрации на pirat.ca и получить 1000 дублонов.

Ваш код:
e621043de256c2d06ace01c746e29fd2f9875c77
 
     

Подпольная империя / Boardwalk Empire / Сезон: 1 / Серии: 1-12 (12) (Тимоти Ван Паттен / Timothy Van Patten, ...) [2010 г., драма, криминал, BDRip, 720p] AVO (Ю. Сербин) + MVO (1, Lost, Fox) + DVO (K3) + Original (Eng) + Sub (Rus, Ukr, Eng)

Ответить на тему
 
Автор
Сообщение

Пост 18-Окт-2014 20:47

[Q] 

TERMOS

Легенда

-Подпольная империя / Boardwalk Empire
«Atlantic City, 1920. When alcohol was outlawed, outlaws became kings.»
(1 сезон)
-- Год выпуска: 2010
Производство: США
Жанр: драма, криминал
Продолжительность: 12x ~00:55:00
Перевод: Авторский (одноголосый, закадровый) [Ю. Сербин]
Перевод 2: Профессиональный (многоголосый, закадровый) [LostFilm]
Перевод 3: Профессиональный (двухголосый, закадровый) [Кубик в Кубе]
Перевод 4: Профессиональный (многоголосый, закадровый) [Первый канал]
Перевод 5: Профессиональный (многоголосый, закадровый) [FOX]
Оригинальный аудиопоток: английский
Режиссер: Тимоти Ван Паттен / Timothy Van Patten, Аллен Култер / Allen Coulter , Джереми Подесва / Jeremy Podeswa-В ролях: Стив Бушеми, Майкл Питт, Келли Макдоналд, Майкл Шеннон, Ши Уигхэм, Алекса Палладино, Майкл Стулбарг, Стивен Грэм, Винсент Пьяцца, Джек Хьюстон, Майкл К. Уильямс, Энтони Лакиура, Пол Спаркс, Гретхен Мол, Люси Галина, Джози Галина, Деклан Мактик, Рори Мактик, Брэйди Нун, Коннор Нун, Пас де ла Уэрта, Дэбни Коулмэн, Чарли Кокс, Анатол Юсеф, Виктор Верхак, Роберт Клохесси, Кевин О’Рурк, Хезер Линд, Уильям Хилл, Адам Муччи, Эдвард МакГинти, Бобби Каннавейл, Грег Антоначчи, Жаклин Пеннвилль, Пол Джуд Летерски.-Описание: 1920 год. Через несколько часов Атлантик-Сити - столица развлечений и порока, как и вся Америка, вступит в эпоху «Сухого закона». Енох «Наки» Томпсон, днем - городской казначей, а ночью - хитроумный гангстер со связями на самом «верху», решает воспользоваться ситуацией и получить баснословные прибыли на подпольной торговле алкоголем. Однако не он один жаждет обогатиться на новом промысле...
- , , - -Качество видео: BDRip
Контейнер: MKV
Стандарт разрешения: 720p
Видео кодек: H.264/AVC
Аудио кодек: DTS, AC3
Видео: 1280x720 at 23.976 fps, ~5200 - 7000 kbps avg
Аудио : Russian: 48 kHz, DTS, 3/2 (L,C,R,l,r) + LFE ch, ~ 1536.00 kbps avg - Ю. Сербин
Аудио #2: Russian: 48 kHz, DTS, 3/2 (L,C,R,l,r) + LFE ch, ~ 1536.00 kbps avg - LostFilm
Аудио #3: Russian: 48 kHz, DTS, 3/2 (L,C,R,l,r) + LFE ch, ~ 1536.00 kbps avg - Кубик в Кубе
Аудио #4: Russian: 48 kHz, AC3, 2 ch (L,R), ~192.00 kbps avg - Первый канал
Аудио #5: Russian: 48 kHz, AC3, 2 ch (L,R), ~192.00 kbps avg - FOX
Аудио #6: English: 48 kHz, DTS, 3/2 (L,C,R,l,r) + LFE ch, ~ 1536.00 kbps avg
Субтитры: Русские (SOLDLUCK), Украинские (Serpanok), Английские
01: Boardwalk Empire / Преступная империя
02: The Ivory Tower / Башня из слоновой кости
03: Broadway Limited / Бродвейский экспресс
04: Anastasia / Анастасия
05: Nights in Ballygran / Ночи в Баллигране
06: Family Limitation / Планирование семьи
07: Home / Дом
08: Hold Me in Paradise / Удержи меня в раю
09: Belle Femme / Для милых дам
10: The Emerald City / Изумрудный город
11: Paris Green / Парижская зелень
12: A Return to Normalcy / Возвращение к "нормальности"
• Реально существовавший Енох «Наки» Джонсон (Enoch L. Johnson) послужил прототипом для «Наки» Томпсона. Внешне Джонсон совершенно не походил на актера Стива Бушеми: это был представительный мужчина, высокий и грузный, с лысиной, — и напоминал скорее персонажа Тони Сопрано из сериала «Клан Сопрано». Создатель «Подпольной империи» Теренс Уинтер, также работавший над сценариями серий для «Клана Сопрано», хотел создать персонаж «Наки», отличающийся от образа, реального или сыгранного Джеймсом Гандольфини.
• Для рекламы второго сезона сериала, начиная с 25 сентября 2011 года, в Нью-Йоркском метро были выпущены на линию исторические вагоны типа «Lo-V» (Low Voltage). Они выпускались с 1916 по 1925 год, и эксплуатировались до 1969 года. В составе исторического поезда были использованы вагоны N 5290, 5292 постройки 1917 года, и вагоны N 5443, 5483 постройки 1924 года. Вместо станции отправления и назначения, на вагонах были установлены таблички с рекламой сериала, рекламными постерами сериала также были обклеены вагоны изнутри. Исторический поезд ходил по маршруту IRT, от станций 42nd Street до станции 96th Street, с единственной остановкой на станции 72nd Street.
• Атлантик-Сити двадцатых годов был в точности воссоздан в Бруклине (Нью-Йорк). Бюджет премьерной серии составил $18 млн, из которых $5 млн пошли на воссоздание городского квартала со всеми внутренними интерьерами, а также сооружение дощатого настила набережной длиной около 91,5 метров. Исполнительный продюсер и режиссер пилотной серии Мартин Скорсезе был настолько требователен в плане точности, что, например, настаивал, чтобы доски для настила были точно такого же размера, как они были в Атлантик-Сити в то время.
Код:
General
Complete name                    : U:\Uploads\Pirat.Ca\Boardwalk Empire - Season 01 (2010)[720p.BDRip]\Boardwalk.Empire.S01E01.720p.BluRay.5xRus.Eng.HDCLUB.mkv
Format                           : Matroska
File size                        : 6.88 GiB
Duration                         : 1h 12mn
Overall bit rate                 : 13.6 Mbps
Encoded date                     : UTC 2014-10-18 15:42:17
Writing application              : mkvmerge v6.0.0 ('Coming Up For Air') built on Jan 20 2013 09:52:00
Writing library                  : libebml v1.3.0 + libmatroska v1.4.0
Video
ID                               : 1
Format                           : AVC
Format/Info                      : Advanced Video Codec
Format profile                   : [email protected]
Format settings, CABAC           : Yes
Format settings, ReFrames        : 4 frames
Muxing mode                      : Container [email protected]
Codec ID                         : V_MPEG4/ISO/AVC
Duration                         : 1h 12mn
Bit rate                         : 6 927 Kbps
Width                            : 1 280 pixels
Height                           : 720 pixels
Display aspect ratio             : 16:9
Frame rate                       : 23.976 fps
Color space                      : YUV
Chroma subsampling               : 4:2:0
Bit depth                        : 8 bits
Scan type                        : Progressive
Bits/(Pixel*Frame)               : 0.313
Stream size                      : 3.50 GiB (51%)
Writing library                  : x264 core 116 r2057 0ba8a9c
Encoding settings                : cabac=1 / ref=3 / deblock=1:-3:-3 / analyse=0x3:0x133 / me=umh / subme=10 / psy=1 / psy_rd=1.00:0.00 / mixed_ref=1 / me_range=32 / chroma_me=1 / trellis=2 / 8x8dct=1 / cqm=0 / deadzone=21,11 / fast_pskip=0 / chroma_qp_offset=-2 / threads=18 / sliced_threads=0 / nr=0 / decimate=0 / interlaced=0 / bluray_compat=0 / constrained_intra=0 / bframes=7 / b_pyramid=2 / b_adapt=2 / b_bias=0 / direct=3 / weightb=1 / open_gop=0 / weightp=2 / keyint=250 / keyint_min=23 / scenecut=40 / intra_refresh=0 / rc_lookahead=40 / rc=crf / mbtree=0 / crf=16.0 / qcomp=0.65 / qpmin=0 / qpmax=51 / qpstep=4 / vbv_maxrate=50000 / vbv_bufsize=50000 / crf_max=0.0 / nal_hrd=none / ip_ratio=1.25 / pb_ratio=1.25 / aq=1:0.65
Language                         : English
Audio #1
ID                               : 2
Format                           : DTS
Format/Info                      : Digital Theater Systems
Codec ID                         : A_DTS
Duration                         : 1h 12mn
Bit rate mode                    : Constant
Bit rate                         : 1 510 Kbps
Channel(s)                       : 6 channels
Channel positions                : Front: L C R, Side: L R, LFE
Sampling rate                    : 48.0 KHz
Bit depth                        : 24 bits
Stream size                      : 781 MiB (11%)
Title                            : DTS 5.1 1536 kbps - Одноголосый закадровый, Ю. Сербин
Language                         : Russian
Audio #2
ID                               : 3
Format                           : DTS
Format/Info                      : Digital Theater Systems
Codec ID                         : A_DTS
Duration                         : 1h 12mn
Bit rate mode                    : Constant
Bit rate                         : 1 510 Kbps
Channel(s)                       : 6 channels
Channel positions                : Front: L C R, Side: L R, LFE
Sampling rate                    : 48.0 KHz
Bit depth                        : 24 bits
Stream size                      : 781 MiB (11%)
Title                            : DTS 5.1 1536 kbps - Многоголосый закадровый, LostFilm.TV
Language                         : Russian
Audio #3
ID                               : 4
Format                           : DTS
Format/Info                      : Digital Theater Systems
Codec ID                         : A_DTS
Duration                         : 1h 12mn
Bit rate mode                    : Constant
Bit rate                         : 1 510 Kbps
Channel(s)                       : 6 channels
Channel positions                : Front: L C R, Side: L R, LFE
Sampling rate                    : 48.0 KHz
Bit depth                        : 24 bits
Stream size                      : 781 MiB (11%)
Title                            : DTS 5.1 1536 kbps - Двухголосый закадровый, Кубик в Кубе
Language                         : Russian
Audio #4
ID                               : 5
Format                           : AC-3
Format/Info                      : Audio Coding 3
Mode extension                   : CM (complete main)
Codec ID                         : A_AC3
Duration                         : 1h 12mn
Bit rate mode                    : Constant
Bit rate                         : 192 Kbps
Channel(s)                       : 2 channels
Channel positions                : Front: L R
Sampling rate                    : 48.0 KHz
Bit depth                        : 16 bits
Stream size                      : 99.4 MiB (1%)
Title                            : AC3 2.0 192 kbps - Многоголосый закадровый, Первый канал
Language                         : Russian
Audio #5
ID                               : 6
Format                           : AC-3
Format/Info                      : Audio Coding 3
Mode extension                   : CM (complete main)
Codec ID                         : A_AC3
Duration                         : 1h 12mn
Bit rate mode                    : Constant
Bit rate                         : 192 Kbps
Channel(s)                       : 2 channels
Channel positions                : Front: L R
Sampling rate                    : 48.0 KHz
Bit depth                        : 16 bits
Stream size                      : 99.4 MiB (1%)
Title                            : AC3 2.0 192 kbps - Многоголосый закадровый, FOX
Language                         : Russian
Audio #6
ID                               : 7
Format                           : DTS
Format/Info                      : Digital Theater Systems
Codec ID                         : A_DTS
Duration                         : 1h 12mn
Bit rate mode                    : Constant
Bit rate                         : 1 510 Kbps
Channel(s)                       : 6 channels
Channel positions                : Front: L C R, Side: L R, LFE
Sampling rate                    : 48.0 KHz
Bit depth                        : 24 bits
Stream size                      : 781 MiB (11%)
Title                            : DTS 5.1 1536 kbps
Language                         : English
Text #1
ID                               : 8
Format                           : UTF-8
Codec ID                         : S_TEXT/UTF8
Codec ID/Info                    : UTF-8 Plain Text
Language                         : Russian
Text #2
ID                               : 9
Format                           : UTF-8
Codec ID                         : S_TEXT/UTF8
Codec ID/Info                    : UTF-8 Plain Text
Language                         : Ukrainian
Text #3
ID                               : 10
Format                           : UTF-8
Codec ID                         : S_TEXT/UTF8
Codec ID/Info                    : UTF-8 Plain Text
Language                         : English
Menu
00:00:00.000                     : en:00:00:00.000
00:01:37.347                     : en:00:01:37.347
00:08:21.960                     : en:00:08:21.960
00:18:15.386                     : en:00:18:15.386
00:34:20.976                     : en:00:34:20.976
00:46:04.220                     : en:00:46:04.220
00:59:44.080                     : en:00:59:44.080
01:11:00.089                     : en:01:11:00.089
Download / Скачать

Хотите скачать бесплатно? Зарегистрируйтесь на сайте (ссылка на регистрацию). Pirat.ca - самый быстрый торрент трекер в рунете!

Как скачивать  ·   Что такое торрент  ·   Рейтинг и ограничения

Пост 18-Окт-2014 20:52 (спустя 5 минут)

Топик был перенесен из форума Сериалы с Авторским переводом (Трюм) в форум Сериалы с Авторским переводом (DVD / HD)
gross1978
 

viktor41

Морской Волк

Пост 19-Окт-2014 21:14 (спустя 1 день)

[Q] 

TERMOS, Спасибочки ! Всем качать!!! Автору респект!!!
[Профиль]  [ЛС] 

cimi

Флибустьер

Пост 28-Окт-2014 13:13 (спустя 8 дней)

[Q] 

Ух-х-х! Спасибки!

_________________
[Профиль]  [ЛС] 

TERMOS ®

Легенда

19664

Пост 02-Ноя-2014 16:33 (спустя 5 дней)

[Q] 

viktor41, cimi, az

_________________
[Профиль]  [ЛС] 

Vanzulis

Лоцман

Пост 20-Ноя-2014 18:08 (спустя 18 дней)

[Q] 

Раздающие, вернитесь! спасибо!
[Профиль]  [ЛС] 

SarmatKumar

Морской Волк

Пост 12-Дек-2014 22:05 (спустя 22 дня)

[Q] 

Спасибо ...... Лови бочку ..............
[Профиль]  [ЛС] 
Показать сообщения:    
Ответить на тему

Текущее время: Сегодня 20:47

Часовой пояс: GMT + 4



Вы не можете начинать темы
Вы не можете отвечать на сообщения
Вы не можете редактировать свои сообщения
Вы не можете удалять свои сообщения
Вы не можете голосовать в опросах
Вы не можете прикреплять файлы к сообщениям
Вы не можете скачивать файлы

▼ Вниз