Уважаемый Гость!
Вы можете поддержать проект и зарегистрироваться у наших партнеров - онлайн-стратегия MyLands. При регистрации в игре Вы получите код, который сможете активировать после регистрации на pirat.ca и получить 1000 дублонов.

Ваш код:
e621043de256c2d06ace01c746e29fd2f9875c77
 
     

Ходячие мертвецы / The Walking Dead / Сезон: 1 / Серии: 1-6 (6) (Фрэнк Дарабонт / Frank Darabont) [2010 г., драма, триллер, ужасы, BDRip, 720p] MVO (LostFilm, Новамедиа, FoxCrime) + DVO (К3) + AVO (В.Белов) + Original (Eng) + Sub (Rus, Eng)

Ответить на тему
 
Автор
Сообщение

Пост 28-Окт-2014 00:24

[Q] 

TERMOS

Легенда

-Ходячие мертвецы / The Walking Dead
(1 сезон)
-- Производство: США | Circle of Confusion, Valhalla Motion Pictures, Darkwoods Productions
Жанр: драма, триллер, ужасы
Год выпуска: 2010 г.
Продолжительность: 1х 01:07:00, 5х ~ 00:43:00 + (00:17:28)
Перевод: Профессиональный (многоголосый, закадровый) [LostFilm]
Перевод 2: Профессиональный (двухголосый, закадровый) [Кубик в Кубе]
Перевод 3: Профессиональный (многоголосый, закадровый) [Новамедиа]
Перевод 4: Авторский (одноголосый, закадровый) [В.Белов]
Перевод 5: Профессиональный (многоголосый, закадровый) [FoxCrime]-Режиссер: Фрэнк Дарабонт / Frank Darabont-В ролях: Эндрю Линкольн, Джон Бернтал, Сара Уэйн Кэллис, Лори Холден, Джефри ДеМанн, Стивен Юн, Чендлер Риггз, Айрон Э. Синглтон, Норман Ридус, Мелисса Сюзанн МакБрайд-Описание: Сериал рассказывает историю жизни семьи шерифа после того, как «зомби» - эпидемия апокалипсических масштабов захлестнула земной шар. Шериф Рик Грайм путешествует со своей семьей и небольшой группой выживших в поисках безопасного места для жизни. Но постоянный страх смерти каждый день приносит тяжелые потери, заставляя героев почувствовать глубины человеческой жестокости. Рик пытается спасти свою семью, и открывает для себя, что всепоглощающий страх тех, кто выжил, может быть опаснее бессмысленных мертвецов, бродящих по земле.-Дополнительная информация: В раздачу включен фильм о создании сериала (с русским переводом).
- - -Качество видео: BDRip
Контейнер: MKV
Стандарт разрешения: 720p
Видео кодек: H.264/AVC
Аудио кодек: DTS, AC3
Видео: 1280x720, 23.976 fps, ~8500 kbps avg
Аудио: (Rus) 48 kHz, DTS, 3/2 (L,C,R,l,r) + LFE ch, ~1536 kbps avg |Многоголосый закадровый, "LostFilm"|
Аудио #2: (Rus) 48 kHz, DTS, 3/2 (L,C,R,l,r) + LFE ch, ~1536 kbps avg |Двухголосый закадровый, "Кубик в Кубе"|
Аудио #3: (Rus) 48 kHz, DTS, 3/2 (L,C,R,l,r) + LFE ch, ~1536 kbps avg |Многоголосый закадровый, студия "Новамедиа"|
Аудио #4: (Rus) 48 kHz, DTS, 3/2 (L,C,R,l,r) + LFE ch, ~1536 kbps avg |Одноголосый закадровый, В.Белов|
Аудио #5: (Rus) 48 kHz, AC3, 2/0 (L,R) ch, ~192.00 kbps avg |Многоголосый закадровый, "FoxCrime"|
Аудио #6: (Eng) 48 kHz, AC3, 3/2 (L,C,R,l,r) + LFE ch, ~640 kbps avg
Cубтитры: Russian (надписи и пр.), English
Episode 01: Days Gone Bye / Дни, ушедшие навсегда
Episode 02: Guts / Кишки
Episode 03: Tell It to the Frogs / Скажи это лягушкам
Episode 04: Vatos / Братки
Episode 05: Wildfire / Инфекция
Episode 06: TS-19 / Подопытный
Код:
General
Complete name                    : X:\Uploads\Pirat.Ca\The Walking Dead - Season 01 (2010)[720p.BDRip]\The Walking Dead.S01E01.720p.BluRay.5xRus.Eng.mkv
Format                           : Matroska
File size                        : 7.20 GiB
Duration                         : 1h 7mn
Overall bit rate                 : 15.4 Mbps
Encoded date                     : UTC 2012-12-25 23:03:39
Writing application              : mkvmerge v4.2.0 ('No Talking') сборка от Jul 28 2010 18:38:23
Writing library                  : libebml v1.0.0 + libmatroska v1.0.0
Video
ID                               : 1
Format                           : AVC
Format/Info                      : Advanced Video Codec
Format profile                   : [email protected]
Format settings, CABAC           : Yes
Format settings, ReFrames        : 9 frames
Format settings, GOP             : M=7, N=32
Muxing mode                      : Container [email protected]
Codec ID                         : V_MPEG4/ISO/AVC
Duration                         : 1h 7mn
Bit rate                         : 8 500 Kbps
Width                            : 1 280 pixels
Height                           : 720 pixels
Display aspect ratio             : 16:9
Frame rate                       : 23.976 fps
Color space                      : YUV
Chroma subsampling               : 4:2:0
Bit depth                        : 8 bits
Scan type                        : Progressive
Bits/(Pixel*Frame)               : 0.385
Stream size                      : 3.84 GiB (53%)
Writing library                  : x264 core 114 r1900 60ef1f8
Encoding settings                : cabac=1 / ref=9 / deblock=1:-3:-3 / analyse=0x3:0x113 / me=umh / subme=9 / psy=1 / psy_rd=1.00:0.00 / mixed_ref=1 / me_range=32 / chroma_me=1 / trellis=1 / 8x8dct=1 / cqm=0 / deadzone=21,11 / fast_pskip=0 / chroma_qp_offset=-2 / threads=7 / sliced_threads=0 / nr=0 / decimate=0 / interlaced=0 / constrained_intra=0 / bframes=6 / b_pyramid=2 / b_adapt=1 / b_bias=0 / direct=1 / weightb=1 / open_gop=0 / weightp=2 / keyint=250 / keyint_min=23 / scenecut=40 / intra_refresh=0 / rc_lookahead=40 / rc=2pass / mbtree=1 / bitrate=8500 / ratetol=1.0 / qcomp=0.60 / qpmin=0 / qpmax=69 / qpstep=4 / cplxblur=20.0 / qblur=0.5 / ip_ratio=1.40 / aq=1:0.80
Language                         : English
Audio #1
ID                               : 2
Format                           : DTS
Format/Info                      : Digital Theater Systems
Codec ID                         : A_DTS
Duration                         : 1h 7mn
Bit rate mode                    : Constant
Bit rate                         : 1 510 Kbps
Channel(s)                       : 6 channels
Channel positions                : Front: L C R, Side: L R, LFE
Sampling rate                    : 48.0 KHz
Bit depth                        : 24 bits
Video delay                      : 11ms
Stream size                      : 725 MiB (10%)
Title                            : DTS 5.1 @ 1536 kbps - Многоголосый закадровый, LostFilmTV
Language                         : Russian
Audio #2
ID                               : 3
Format                           : DTS
Format/Info                      : Digital Theater Systems
Codec ID                         : A_DTS
Duration                         : 1h 7mn
Bit rate mode                    : Constant
Bit rate                         : 1 510 Kbps
Channel(s)                       : 6 channels
Channel positions                : Front: L C R, Side: L R, LFE
Sampling rate                    : 48.0 KHz
Bit depth                        : 24 bits
Video delay                      : 11ms
Stream size                      : 725 MiB (10%)
Title                            : DTS 5.1 @ 1536 kbps - Двухголосый закадровый, Кубик в Кубе
Language                         : Russian
Audio #3
ID                               : 4
Format                           : DTS
Format/Info                      : Digital Theater Systems
Codec ID                         : A_DTS
Duration                         : 1h 7mn
Bit rate mode                    : Constant
Bit rate                         : 1 510 Kbps
Channel(s)                       : 6 channels
Channel positions                : Front: L C R, Side: L R, LFE
Sampling rate                    : 48.0 KHz
Bit depth                        : 24 bits
Video delay                      : 11ms
Stream size                      : 725 MiB (10%)
Title                            : DTS 5.1 @ 1536 kbps - Многоголосый закадровый, студия "Новамедиа"
Language                         : Russian
Audio #4
ID                               : 5
Format                           : DTS
Format/Info                      : Digital Theater Systems
Codec ID                         : A_DTS
Duration                         : 1h 7mn
Bit rate mode                    : Constant
Bit rate                         : 1 510 Kbps
Channel(s)                       : 6 channels
Channel positions                : Front: L C R, Side: L R, LFE
Sampling rate                    : 48.0 KHz
Bit depth                        : 24 bits
Video delay                      : 11ms
Stream size                      : 725 MiB (10%)
Title                            : DTS 5.1 @ 1536 kbps - Одноголосый закадровый, В.Белов
Language                         : Russian
Audio #5
ID                               : 6
Format                           : AC-3
Format/Info                      : Audio Coding 3
Mode extension                   : CM (complete main)
Codec ID                         : A_AC3
Duration                         : 1h 7mn
Bit rate mode                    : Constant
Bit rate                         : 192 Kbps
Channel(s)                       : 2 channels
Channel positions                : Front: L R
Sampling rate                    : 48.0 KHz
Bit depth                        : 16 bits
Stream size                      : 92.2 MiB (1%)
Title                            : AC3 2.0 @ 192 kbps - Многоголосый закадровый, FoxCrime
Language                         : Russian
Audio #6
ID                               : 7
Format                           : AC-3
Format/Info                      : Audio Coding 3
Mode extension                   : CM (complete main)
Codec ID                         : A_AC3
Duration                         : 1h 7mn
Bit rate mode                    : Constant
Bit rate                         : 640 Kbps
Channel(s)                       : 6 channels
Channel positions                : Front: L C R, Side: L R, LFE
Sampling rate                    : 48.0 KHz
Bit depth                        : 16 bits
Stream size                      : 307 MiB (4%)
Title                            : AC3 5.1 @ 640 kbps
Language                         : English
Text #1
ID                               : 8
Format                           : UTF-8
Codec ID                         : S_TEXT/UTF8
Codec ID/Info                    : UTF-8 Plain Text
Language                         : Russian
Text #2
ID                               : 9
Format                           : UTF-8
Codec ID                         : S_TEXT/UTF8
Codec ID/Info                    : UTF-8 Plain Text
Language                         : English
Download / Скачать

Хотите скачать бесплатно? Зарегистрируйтесь на сайте (ссылка на регистрацию). Pirat.ca - самый быстрый торрент трекер в рунете!

Как скачивать  ·   Что такое торрент  ·   Рейтинг и ограничения

malefik

Корсар

Пост 29-Окт-2014 04:58 (спустя 1 день 4 часа)

[Q] 

первый сезон очень понравился...остальные уже не так...
хорошо что появился конкурент от широко и хренова известной фирмы азилум...:)
хоть и бракодельная фирма...но пока хорошо делают.
[Профиль]  [ЛС] 
Показать сообщения:    
Ответить на тему

Текущее время: Сегодня 20:49

Часовой пояс: GMT + 4



Вы не можете начинать темы
Вы не можете отвечать на сообщения
Вы не можете редактировать свои сообщения
Вы не можете удалять свои сообщения
Вы не можете голосовать в опросах
Вы не можете прикреплять файлы к сообщениям
Вы не можете скачивать файлы

▼ Вниз