Уважаемый Гость!
Вы можете поддержать проект и зарегистрироваться у наших партнеров - онлайн-стратегия MyLands. При регистрации в игре Вы получите код, который сможете активировать после регистрации на pirat.ca и получить 1000 дублонов.

Ваш код:
e621043de256c2d06ace01c746e29fd2f9875c77
 
     

Во все тяжкие / Breaking Bad / Сезон: 2 / Серии: 1-13 (13) (Адам Бернштейн / Adam Bernstein) [2009 г., триллер, драма, криминал, BDRip, 1080p] MVO(LostFilm, Foxcrime, Inter) + DVO(К3, Foxlight) + AVO(Сербин) + Original(Eng) + Sub(Rus, Eng)

Ответить на тему
 
Автор
Сообщение

Пост 13-Ноя-2014 20:47

[Q] 

TERMOS

Легенда

-Во все тяжкие / Breaking Bad
(2 сезон)
-- Год выпуска: 2009
Производство: США
Жанр: триллер, драма, криминал
Продолжительность серии: ~00:48:00
Перевод: Профессиональный (двухголосый, закадровый) Кубик в Кубе
Перевод 2: Авторский (одноголосый, закадровый) Ю. Сербин
Перевод 3: Профессиональный (многоголосый, закадровый) Lostfilm
Перевод 4: Профессиональный (многоголосый, закадровый) Foxcrime
Перевод 5: Профессиональный (двухголосый, закадровый) Foxlight (1001cinema)
Перевод 6: Профессиональный (многоголосый, закадровый) Inter
Оригинальный аудиопоток: английский
Субтитры: есть
Режиссер: Адам Бернштейн / Adam Bernstein
В ролях: Брайан Крэнстон, Анна Ганн, Аарон Пол, Дин Норрис, Бетси Брандт, Эр Джей, Стивен Майкл Квезада, Кристен Риттер, Дэвид Хаус, Кармен Серано...
Описание: Уолтер Уайт, преподаватель химии в университе. У него есть жена и сын-инвалид, жена ждет еще одного ребенка. Уолт уже не молод и в этом возрасте часто бывают кризисы, тем более нужно кормить семью, а на зарплату преподавателя не разгуляешься, поэтому он вынужден подрабатывать на автомойке, где его же студенты над ним насмехаются, а еще сын, чью инвалидность тоже постоянно осмеивают.
Его свояк работает в Управлении по борьбе с наркотиками и однажды предлагает поучаствовать в облаве на дом, где находится лаборатория по приготовлению метамфентамина. Во время облавы Уолт случайно видит, как один дилер сбегает от облавы, им оказывается его бывший студент.
Уолт решает заняться с ним бизнесом про приготовлению метамфетамина, так как он на изломе, что ему терять: он бросил работу на автомойке, секс с женой ограничивается только рукоблудием с ее стороны, ему поставили диагноз — неоперабельный рак легких, да и свояк постоянно говорит, что метамфетамин приносит огромные деньги. Кто еще может приготовить чистейший метамфетамин, как не учитель химии?
Уолт и его напарник снимают трейлер и организуют там лабораторию, уехав перед тем в пустыню, подальше от глаз. Первая партия готова, напарник Уолта, Джесси идет ее реализовывать…- -Качество видео: BDRip
Контейнер: MKV
Стандарт разрешения: 1080p
Видео кодек: H.264/AVC
Аудио кодек: DTS, AC3
Видео: 1920x1080 (16:9), 23.976 fps, ~11.0 Mbps avg
Аудио : (RUS) 48 kHz, DTS, 5.1 ch, ~1510 kbps - |Двухголосый закадровый, Кубик в Кубе|
Аудио #2: (RUS) 48 kHz, DTS, 5.1 ch, ~1510 kbps - |Авторский одноголосый, Ю. Сербин|
Аудио #3: (RUS) 48 kHz, DTS, 5.1 ch, ~1510 kbps - |Многоголосый закадровый, LostFilm|
Аудио #4: (RUS) 48 kHz, DTS, 5.1 ch, ~1510 kbps - |Многоголосый закадровый, Foxcrime|
Аудио #5: (RUS) 48 kHz, AC3, 5.1 ch, ~640.00 kbps avg - |Двухголосый закадровый, Foxlight(1001cinema)|
Аудио #6: (UKR) 48 kHz, AC3, 2/0 (L,R) ch, ~192.00 kbps avg - |Многоголосый закадровый, Inter|
Аудио #7: (ENG) 48 kHz, DTS, 5.1 ch, ~1510 kbps - |Original|
Аудио #8: (ENG) 48 kHz, AC3, 2/0 (L,R) ch, ~192.00 kbps avg - |Commentary|
Субтитры: Russian (Forced, Full), English
Episode 1: Seven Thirty-Seven / Семьсот Тридцать Семь
Episode 2: Grilled / Попандос
Episode 3: Bit By A Dead Bee / Укус мертвой пчелы
Episode 4: Down / На дне
Episode 5: Breakage / Бой товара
Episode 6: Peekaboo / Игра в прятки
Episode 7: Negro Y Azul / Черный и голубой
Episode 8: Better Call Saul / Лучше позвони Солу
Episode 9: 4 Days Out / Четыре дня отсутствия
Episode 10: Over / Конец бизнеса
Episode 11: Mandala / Мандала
Episode 12: Phoenix / Феникс
Episode 13: ABQ / Альбукерке
Код:
General
Complete name                    : T:\Uploads\Pirat.Ca\Breaking Bad - Season 2 (2009)[BDRip.1080p]\Breaking.Bad.S02E01.1080p.BluRay.mkv
Format                           : Matroska
File size                        : 6.46 GiB
Duration                         : 47mn 15s
Overall bit rate                 : 19.6 Mbps
Movie name                       : Breaking.Bad.S02E01.Seven.Thirty-Seven.1080p.BluRay.DTS.x264-decibeL
Encoded date                     : UTC 2014-09-15 17:39:53
Writing application              : mkvmerge v2.0.2 ('You're My Flame') built on Feb 21 2007 23:40:55
Writing library                  : libebml v0.7.7 + libmatroska v0.8.1
Video
ID                               : 1
Format                           : AVC
Format/Info                      : Advanced Video Codec
Format profile                   : [email protected]
Format settings, CABAC           : Yes
Format settings, ReFrames        : 4 frames
Muxing mode                      : Container [email protected]
Codec ID                         : V_MPEG4/ISO/AVC
Duration                         : 47mn 15s
Bit rate                         : 11.0 Mbps
Width                            : 1 920 pixels
Height                           : 1 080 pixels
Display aspect ratio             : 16:9
Frame rate                       : 23.976 fps
Color space                      : YUV
Chroma subsampling               : 4:2:0
Bit depth                        : 8 bits
Scan type                        : Progressive
Bits/(Pixel*Frame)               : 0.221
Stream size                      : 3.50 GiB (54%)
Writing library                  : x264 core 129 r2245 bc13772
Encoding settings                : cabac=1 / ref=4 / deblock=1:-3:-3 / analyse=0x3:0x113 / me=umh / subme=10 / psy=1 / psy_rd=1.10:0.00 / mixed_ref=1 / me_range=64 / chroma_me=1 / trellis=2 / 8x8dct=1 / cqm=0 / deadzone=21,11 / fast_pskip=0 / chroma_qp_offset=0 / threads=3 / lookahead_threads=1 / sliced_threads=0 / nr=0 / decimate=1 / interlaced=0 / bluray_compat=0 / constrained_intra=0 / bframes=7 / b_pyramid=2 / b_adapt=2 / b_bias=0 / direct=3 / weightb=1 / open_gop=0 / weightp=2 / keyint=240 / keyint_min=23 / scenecut=40 / intra_refresh=0 / rc_lookahead=90 / rc=2pass / mbtree=1 / bitrate=11000 / ratetol=1.0 / qcomp=0.70 / qpmin=10 / qpmax=51 / qpstep=4 / cplxblur=20.0 / qblur=0.5 / vbv_maxrate=38000 / vbv_bufsize=30000 / nal_hrd=none / ip_ratio=1.40 / aq=1:0.90
Language                         : English
Audio #1
ID                               : 2
Format                           : DTS
Format/Info                      : Digital Theater Systems
Codec ID                         : A_DTS
Duration                         : 47mn 15s
Bit rate mode                    : Constant
Bit rate                         : 1 510 Kbps
Channel(s)                       : 6 channels
Channel positions                : Front: L C R, Side: L R, LFE
Sampling rate                    : 48.0 KHz
Bit depth                        : 24 bits
Stream size                      : 510 MiB (8%)
Title                            : Кубик в Кубе [DTS 6ch 1509 kbps]
Language                         : Russian
Audio #2
ID                               : 3
Format                           : DTS
Format/Info                      : Digital Theater Systems
Codec ID                         : A_DTS
Duration                         : 47mn 15s
Bit rate mode                    : Constant
Bit rate                         : 1 510 Kbps
Channel(s)                       : 6 channels
Channel positions                : Front: L C R, Side: L R, LFE
Sampling rate                    : 48.0 KHz
Bit depth                        : 24 bits
Stream size                      : 510 MiB (8%)
Title                            : Сербин [DTS 6ch 1509 kbps]
Language                         : Russian
Audio #3
ID                               : 4
Format                           : DTS
Format/Info                      : Digital Theater Systems
Codec ID                         : A_DTS
Duration                         : 47mn 15s
Bit rate mode                    : Constant
Bit rate                         : 1 510 Kbps
Channel(s)                       : 6 channels
Channel positions                : Front: L C R, Side: L R, LFE
Sampling rate                    : 48.0 KHz
Bit depth                        : 24 bits
Stream size                      : 510 MiB (8%)
Title                            : Lostfilm [DTS 6ch 1509 kbps]
Language                         : Russian
Audio #4
ID                               : 5
Format                           : DTS
Format/Info                      : Digital Theater Systems
Codec ID                         : A_DTS
Duration                         : 47mn 15s
Bit rate mode                    : Constant
Bit rate                         : 1 510 Kbps
Channel(s)                       : 6 channels
Channel positions                : Front: L C R, Side: L R, LFE
Sampling rate                    : 48.0 KHz
Bit depth                        : 24 bits
Stream size                      : 510 MiB (8%)
Title                            : FoxCrime [DTS 6ch 1509 kbps]
Language                         : Russian
Audio #5
ID                               : 6
Format                           : AC-3
Format/Info                      : Audio Coding 3
Mode extension                   : CM (complete main)
Codec ID                         : A_AC3
Duration                         : 47mn 15s
Bit rate mode                    : Constant
Bit rate                         : 640 Kbps
Channel(s)                       : 6 channels
Channel positions                : Front: L C R, Side: L R, LFE
Sampling rate                    : 48.0 KHz
Bit depth                        : 16 bits
Stream size                      : 216 MiB (3%)
Title                            : Foxlight  [AC3 6ch 640 kbps]
Language                         : Russian
Audio #6
ID                               : 7
Format                           : AC-3
Format/Info                      : Audio Coding 3
Mode extension                   : CM (complete main)
Codec ID                         : A_AC3
Duration                         : 47mn 15s
Bit rate mode                    : Constant
Bit rate                         : 192 Kbps
Channel(s)                       : 2 channels
Channel positions                : Front: L R
Sampling rate                    : 48.0 KHz
Bit depth                        : 16 bits
Stream size                      : 64.9 MiB (1%)
Title                            : Интер [AC3 2ch 192 kbps]
Language                         : Ukrainian
Audio #7
ID                               : 8
Format                           : DTS
Format/Info                      : Digital Theater Systems
Codec ID                         : A_DTS
Duration                         : 47mn 15s
Bit rate mode                    : Constant
Bit rate                         : 1 510 Kbps
Channel(s)                       : 6 channels
Channel positions                : Front: L C R, Side: L R, LFE
Sampling rate                    : 48.0 KHz
Bit depth                        : 24 bits
Stream size                      : 510 MiB (8%)
Title                            : Оригинал [DTS 6ch 1509 kbps]
Language                         : English
Audio #8
ID                               : 9
Format                           : AC-3
Format/Info                      : Audio Coding 3
Mode extension                   : CM (complete main)
Codec ID                         : A_AC3
Duration                         : 47mn 15s
Bit rate mode                    : Constant
Bit rate                         : 192 Kbps
Channel(s)                       : 2 channels
Channel positions                : Front: L R
Sampling rate                    : 48.0 KHz
Bit depth                        : 16 bits
Stream size                      : 64.9 MiB (1%)
Title                            : Commentary
Language                         : English
Text #1
ID                               : 10
Format                           : ASS
Codec ID                         : S_TEXT/ASS
Codec ID/Info                    : Advanced Sub Station Alpha
Title                            : Forced
Language                         : Russian
Text #2
ID                               : 11
Format                           : ASS
Codec ID                         : S_TEXT/ASS
Codec ID/Info                    : Advanced Sub Station Alpha
Title                            : Russian full
Language                         : Russian
Text #3
ID                               : 12
Format                           : ASS
Codec ID                         : S_TEXT/ASS
Codec ID/Info                    : Advanced Sub Station Alpha
Title                            : English
Language                         : English
Menu
00:00:00.000                     : en:Chapter 1
00:01:34.886                     : en:Chapter 2
00:16:19.395                     : en:Chapter 3
00:26:15.199                     : en:Chapter 4
00:38:55.542                     : en:Chapter 5
00:46:30.204                     : en:Chapter 6
Download / Скачать

Хотите скачать бесплатно? Зарегистрируйтесь на сайте (ссылка на регистрацию). Pirat.ca - самый быстрый торрент трекер в рунете!

Как скачивать  ·   Что такое торрент  ·   Рейтинг и ограничения

Пост 13-Ноя-2014 21:44 (спустя 56 минут)

Топик был перенесен из форума Сериалы с Авторским переводом (Трюм) в форум Сериалы с Авторским переводом (DVD / HD)
gross1978
 

denis.surin2011

Пост 15-Янв-2015 22:36 (спустя 2 месяца 2 дня)

[Q] 

Кто-нибудь встаньте на раздачу, плиз
[Профиль]  [ЛС] 
Показать сообщения:    
Ответить на тему

Текущее время: Сегодня 20:54

Часовой пояс: GMT + 4



Вы не можете начинать темы
Вы не можете отвечать на сообщения
Вы не можете редактировать свои сообщения
Вы не можете удалять свои сообщения
Вы не можете голосовать в опросах
Вы не можете прикреплять файлы к сообщениям
Вы не можете скачивать файлы

▼ Вниз