Уважаемый Гость!
Вы можете поддержать проект и зарегистрироваться у наших партнеров - онлайн-стратегия MyLands. При регистрации в игре Вы получите код, который сможете активировать после регистрации на pirat.ca и получить 1000 дублонов.

Ваш код:
7fc744cacfcee7ba28859fbb8382f49407763e39
 
     

24 часа / 24 / Сезон: 2 / Серии: 1-24 (24) (Джон Кассар / Jon Cassar...) [2002 г., боевик, триллер, драма, детектив, WEB-DL, 720p] Dub (ДТВ) + MVO (ТВi) + AVO (С. Визгунов) + Original (Eng) + Sub (Eng)

Ответить на тему
 
Автор
Сообщение

Пост 10-Мар-2015 20:36

[Q] 

TERMOS

Легенда

-24 часа / 24
(2 сезон)
«A New Day. A New Beginning. A New Bauer.»
-- Год выпуска: 2002
Производство: США
Жанр: боевик, триллер, драма, детектив
Продолжительность: 24х ~00:43:00
Перевод: Профессиональный (полное дублирование) [ДТВ]
Перевод 2: Авторский (одноголосый, закадровый) [С. Визгунов]
Перевод 3: Профессиональный (многоголосый, закадровый) [ТВi]
Оригинальный аудиопоток: английский
Режиссер: Джон Кассар / Jon Cassar, Брэд Тернер / Brad Turner, Милан Чейлов / Milan Cheylov...
В ролях: Кифер Сазерленд, Сара Кларк, Деннис Хэйсберт, Элиша Катберт, Лесли Хоуп, Пенни Джонсон, Карлос Бернард, Сара Уинтер, Ксандер Беркли, ...
Описание: В сутках 24 часа, но для Джека Бауэра — шефа элитного антитеррористического подразделения ЦРУ – этого времени явно недостаточно. Ровно за одни сутки он должен успеть спасти город и страну от очередной террористической угрозы. Каждый сезон, состоящий из 24 серий, повествует об одних сутках из жизни Джека, за один день он должен совершить невозможное...
    Действие второго сезона сериала «24» разворачивается через полтора года после событий первого сезона. Джек Бауэр больше не работает в КТП, он подавлен и в депрессии, его дочь Ким избегает встреч с ним. Но когда возникает чрезвычайная ситуация, президент Дэвид Палмер принимает решение вновь ввести Джека в игру. За сутки ему предстоит найти и обезвредить попавшую в руки террористов ядерную бомбу, остановить готовую вот-вот разразиться войну и раскрыть заговор в правительстве.

Сэмпл , IMDB , КиноПоиск- -Качество видео: WEB-DL
Контейнер: MKV
Стандарт разрешения: 720p
Видео кодек: H.264/AVC
Аудио кодек: AC3
Видео: 1280x718 at 23.976 fps, ~4000 kbps avg
Аудио : Russian: 48 kHz, AC3, 2/0 (L,R) ch, ~192.00 kbps avg - Дубляж, ДТВ
Аудио #2: Russian: 48 kHz, AC3, 3/2 (L,C,R,l,r) + LFE ch, ~384.00 kbps avg - Одноголосый закадровый, С. Визгунов
Аудио #3: Ukrainian: 48 kHz, AC3, 2/0 (L,R) ch, ~192.00 kbps avg - Многоголосый закадровый, ТВi
Аудио #4: English: 48 kHz, AC3, 3/2 (L,C,R,l,r) + LFE ch, ~384.00 kbps avg
Субтитры: английские
- Дубляж показывали по ДТВ, по заказу Первого канала.
- Дорожка #2 получена наложением чистого голоса на центральный канал декодированного AC3 5.1.
- В 8 эпизоде в переводе Визгунова есть места зажеванного голоса, на них форсированные сабы.
01: "8:00 a.m.-9:00 a.m."
02: "9:00 a.m.-10:00 a.m."
03: "10:00 a.m.-11:00 a.m.."
04: "11:00 a.m.-12:00 p.m."
05: "12:00 p.m.-1:00 p.m."
06: "1:00 p.m.-2:00 p.m."
07: "2:00 p.m.-3:00 p.m."
08: "3:00 p.m.-4:00 p.m."
09: "4:00 p.m.-5:00 p.m."
10: "5:00 p.m.-6:00 p.m."
11: "6:00 p.m.-7:00 p.m."
12: "7:00 p.m.-8:00 p.m."
13: "8:00 p.m.-9:00 p.m."
14: "9:00 p.m.-10:00 p.m."
15: "10:00 p.m.-11:00 p.m."
16: "11:00 p.m.-12:00 a.m."
17: "12:00 a.m.-1:00 a.m."
18: "1:00 a.m.-2:00 a.m."
19: "2:00 a.m.-3:00 a.m."
20: "3:00 a.m.-4:00 a.m."
21: "4:00 a.m.-5:00 a.m."
22: "5:00 a.m.-6:00 a.m."
23: "6:00 a.m.-7:00 a.m."
24: "7:00 a.m.-8:00 a.m."
Код:
General
Complete name                    : X:\Uploads\Pirat.Ca\24 - Season 02 (2002)[720p.WEB-DL]\24.S02E01.Day.2-8.00.a.m.-9.00.a.m.720p.WEB-DL.2xRus.Ukr.Eng.HDCLUB.mkv
Format                           : Matroska
File size                        : 1.88 GiB
Duration                         : 51mn 53s
Overall bit rate                 : 5 195 Kbps
Encoded date                     : UTC 2015-03-10 14:16:40
Writing application              : mkvmerge v6.0.0 ('Coming Up For Air') built on Jan 20 2013 09:52:00
Writing library                  : libebml v1.3.0 + libmatroska v1.4.0
Video
ID                               : 1
Format                           : AVC
Format/Info                      : Advanced Video Codec
Format profile                   : [email protected]
Format settings, CABAC           : No
Format settings, ReFrames        : 2 frames
Muxing mode                      : Container [email protected]
Codec ID                         : V_MPEG4/ISO/AVC
Duration                         : 51mn 53s
Bit rate mode                    : Variable
Bit rate                         : 3 939 Kbps
Width                            : 1 280 pixels
Height                           : 718 pixels
Display aspect ratio             : 16:9
Frame rate                       : 23.976 fps
Color space                      : YUV
Chroma subsampling               : 4:2:0
Bit depth                        : 8 bits
Scan type                        : Progressive
Bits/(Pixel*Frame)               : 0.179
Stream size                      : 1.43 GiB (76%)
Title                            : 24. Season 02 Episode 01 "Day 2: 8:00 a.m.-9:00 a.m."
Language                         : English
Color primaries                  : BT.709-5, BT.1361, IEC 61966-2-4, SMPTE RP177
Transfer characteristics         : BT.709-5, BT.1361
Matrix coefficients              : BT.709-5, BT.1361, IEC 61966-2-4 709, SMPTE RP177
Audio #1
ID                               : 2
Format                           : AC-3
Format/Info                      : Audio Coding 3
Mode extension                   : CM (complete main)
Codec ID                         : A_AC3
Duration                         : 51mn 53s
Bit rate mode                    : Constant
Bit rate                         : 192 Kbps
Channel(s)                       : 2 channels
Channel positions                : Front: L R
Sampling rate                    : 48.0 KHz
Bit depth                        : 16 bits
Stream size                      : 71.3 MiB (4%)
Title                            : AC3 2.0 @ 192 - Дубляж, ДТВ
Language                         : Russian
Audio #2
ID                               : 3
Format                           : AC-3
Format/Info                      : Audio Coding 3
Mode extension                   : CM (complete main)
Codec ID                         : A_AC3
Duration                         : 51mn 53s
Bit rate mode                    : Constant
Bit rate                         : 384 Kbps
Channel(s)                       : 6 channels
Channel positions                : Front: L C R, Side: L R, LFE
Sampling rate                    : 48.0 KHz
Bit depth                        : 16 bits
Stream size                      : 143 MiB (7%)
Title                            : AC3 5.1 @ 384 - С. Визгунов
Language                         : Russian
Audio #3
ID                               : 4
Format                           : AC-3
Format/Info                      : Audio Coding 3
Mode extension                   : CM (complete main)
Codec ID                         : A_AC3
Duration                         : 51mn 53s
Bit rate mode                    : Constant
Bit rate                         : 192 Kbps
Channel(s)                       : 2 channels
Channel positions                : Front: L R
Sampling rate                    : 48.0 KHz
Bit depth                        : 16 bits
Stream size                      : 71.3 MiB (4%)
Title                            : AC3 2.0 @ 192 - ТВi
Language                         : Ukrainian
Audio #4
ID                               : 5
Format                           : AC-3
Format/Info                      : Audio Coding 3
Mode extension                   : CM (complete main)
Codec ID                         : A_AC3
Duration                         : 51mn 53s
Bit rate mode                    : Constant
Bit rate                         : 384 Kbps
Channel(s)                       : 6 channels
Channel positions                : Front: L C R, Side: L R, LFE
Sampling rate                    : 48.0 KHz
Bit depth                        : 16 bits
Stream size                      : 143 MiB (7%)
Title                            : AC3 5.1 @ 384
Language                         : English
Text
ID                               : 6
Format                           : UTF-8
Codec ID                         : S_TEXT/UTF8
Codec ID/Info                    : UTF-8 Plain Text
Language                         : English
Download / Скачать

Хотите скачать бесплатно? Зарегистрируйтесь на сайте (ссылка на регистрацию). Pirat.ca - самый быстрый торрент трекер в рунете!

Как скачивать  ·   Что такое торрент  ·   Рейтинг и ограничения

Пост 10-Мар-2015 21:01 (спустя 24 минуты)

Топик был перенесен из форума Сериалы с Авторским переводом (Трюм) в форум Сериалы с Авторским переводом (DVD / HD)
gross1978
 
Показать сообщения:    
Ответить на тему

Текущее время: Сегодня 22:19

Часовой пояс: GMT + 4



Вы не можете начинать темы
Вы не можете отвечать на сообщения
Вы не можете редактировать свои сообщения
Вы не можете удалять свои сообщения
Вы не можете голосовать в опросах
Вы не можете прикреплять файлы к сообщениям
Вы не можете скачивать файлы

▼ Вниз