Охранник / The Sentinel (Кларк Джонсон / Clark Johnson) [2006 г., триллер, драма, криминал, детектив, BDRip, 720p] Dub [лицензия] + AVO (П.Гланц и И.Королева) + MVO [лицензия]

Ответить на тему
 
Автор
Сообщение

Пост 06-Апр-2012 15:17

[Q] 

Resident

Охранник / The Sentinel
Год выпуска: 2006
Мировая премьера: 19 апреля 2006, .
Российская премьера: 10 августа 2006, «Гемини Киномир»
Дата выхода DVD: 27 ноября 2008, «Двадцатый Век Фокс СНГ», ...
Производство: США Twentieth Century Fox
Жанр: триллер, драма, криминал, детектив
Продолжительность: 01:48:09
Перевод: Профессиональный (полное дублирование) [лицензия]
Перевод 2: Авторский (одноголосый, закадровый) [П.Гланц и И.Королева]
Перевод 3: Профессиональный (многоголосый, закадровый) [лицензия]
Оригинальный аудиопоток: английский
Субтитры: русские, английские
Режиссер: Кларк Джонсон / Clark Johnson
В ролях
Майкл Дуглас, Кифер Сазерленд, Ева Лонгория Паркер, Мартин Донован, Ричи Костер, Ким Бейсингер, Блэр Браун, Дэвид Раш, Кристин Леман, Рейнор Шайни, Чак Шамата, Пол Кэлдерон, Кларк Джонсон, Рауль Банеджа, Янна МакИнтош, Джошуа Пиис, Саймон Рейнольдс, Геза Ковач, Ясмин Гельо, Дэнни А. Гонзалес
Описание
Специальный агент Пит Гаррисон убежден, что в Белом Доме завелся предатель. Его теория находит подтверждение после убийства одного из охранников президента. Однако подозрение падает на самого Гаррисона. Его отстраняют от дел, и ко всему прочему вменяют в вину связь с первой леди. Жизнь президентской семьи в опасности. Пытаясь найти предателя, Гаррисон вынужден воевать с системой, которую он сам создал…
,
Источник/Качество: BDRip
Формат: MKV
Стандарт разрешения: 720p
Видео кодек: MPEG 4-AVC
Аудио кодек: AC3
Видео: MPEG-4 AVC / 5100 kbps / 1280x534p / 23,976 fps / 2,35:1 / High Profile 4.1, 0.311 bit / pixel
Аудио: Русский : AC3 5.1, 48 kHz, 640 kbps | Профессиональный (дублированный)
Аудио 2: Русский AC3 5.1, 48 kHz, 640 kbps | Профессиональный (двухголосый закадровый) (П.Гланц и И.Королева)
Аудио 3: :Русский AC3 5.1, 48 kHz, 384 kbps | Профессиональный (многоголосый закадровый)
Аудио 4: Английский AC3 5.1, 48 kHz, 640 kbps | Оригинал
Формат субтитров: softsub (SRT)
Общее
Полное имя : L:\The.Sentinel.2006.BDRip.GER.720p.mkv
Формат : Matroska
Размер файла : 5,59 Гбайт
Продолжительность : 1 ч. 48 м.
Общий поток : 7399 Кбит/сек
Название фильма : source:(The Sentinel 2006 BluRay GER 1080p AVC DTS-HD MA 5.1)
Дата кодирования : UTC 2011-02-12 19:20:12
Программа кодирования : mkvmerge v4.5.0 ('Speed of Light') сборка от Feb 1 2011 02:10:32
Библиотека кодирования : libebml v1.2.0 + libmatroska v1.1.0
Видео
Идентификатор : 1
Формат : AVC
Формат/Информация : Advanced Video Codec
Профиль формата : High@L4.1
Параметр CABAC формата : Да
Параметр ReFrames формата : 12 кадры
Идентификатор кодека : V_MPEG4/ISO/AVC
Продолжительность : 1 ч. 48 м.
Битрейт : 5100 Кбит/сек
Ширина : 1280 пикс.
Высота : 534 пикс.
Соотношение сторон : 2,35:1
Частота кадров : 23,976 кадр/сек
Цветовое пространство : YUV
Подвыборка цветности : 4:2:0
Битовая глубина : 8 бит
Тип развёртки : Прогрессивная
Бит/(Пиксели*Кадры) : 0.311
Размер потока : 3,74 Гбайт (67%)
Библиотека кодирования : x264 core 113 r1884 7313bb5
Настройки программы : cabac=1 / ref=12 / deblock=1:0:0 / analyse=0x3:0x113 / me=tesa / subme=10 / psy=1 / psy_rd=1.00:0.00 / mixed_ref=1 / me_range=32 / chroma_me=1 / trellis=2 / 8x8dct=1 / cqm=0 / deadzone=6,4 / fast_pskip=0 / chroma_qp_offset=-2 / threads=6 / sliced_threads=0 / nr=0 / decimate=0 / interlaced=0 / constrained_intra=0 / bframes=8 / b_pyramid=2 / b_adapt=2 / b_bias=0 / direct=3 / weightb=1 / open_gop=0 / weightp=2 / keyint=250 / keyint_min=23 / scenecut=40 / intra_refresh=0 / rc_lookahead=60 / rc=2pass / mbtree=0 / bitrate=5100 / ratetol=1.0 / qcomp=0.60 / qpmin=0 / qpmax=69 / qpstep=4 / cplxblur=20.0 / qblur=0.5 / vbv_maxrate=50000 / vbv_bufsize=62500 / nal_hrd=none / ip_ratio=1.40 / pb_ratio=1.30 / aq=1:0.80
Язык : English
Коэффициенты матрицы : BT.709-5, BT.1361, IEC 61966-2-4 709, SMPTE RP177
Аудио #1
Идентификатор : 2
Формат : AC-3
Формат/Информация : Audio Coding 3
Расширение режима : CM (complete main)
Идентификатор кодека : A_AC3
Продолжительность : 1 ч. 48 м.
Вид битрейта : Постоянный
Битрейт : 640 Кбит/сек
Канал(ы) : 6 канала(ов)
Расположение каналов : Front: L C R, Side: L R, LFE
Частота : 48,0 КГц
Битовая глубина : 16 бит
Метод сжатия : С потерями
Размер потока : 495 Мбайт (9%)
Заголовок : Профессиональный (дублированный)
Язык : Russian
Аудио #2
Идентификатор : 3
Формат : AC-3
Формат/Информация : Audio Coding 3
Расширение режима : CM (complete main)
Идентификатор кодека : A_AC3
Продолжительность : 1 ч. 48 м.
Вид битрейта : Постоянный
Битрейт : 640 Кбит/сек
Канал(ы) : 6 канала(ов)
Расположение каналов : Front: L C R, Side: L R, LFE
Частота : 48,0 КГц
Битовая глубина : 16 бит
Метод сжатия : С потерями
Размер потока : 495 Мбайт (9%)
Заголовок : Профессиональный (двухголосый закадровый) (П.Гланц и И.Королева)
Язык : Russian
Аудио #3
Идентификатор : 4
Формат : AC-3
Формат/Информация : Audio Coding 3
Расширение режима : CM (complete main)
Идентификатор кодека : A_AC3
Продолжительность : 1 ч. 48 м.
Вид битрейта : Постоянный
Битрейт : 384 Кбит/сек
Канал(ы) : 6 канала(ов)
Расположение каналов : Front: L C R, Side: L R, LFE
Частота : 48,0 КГц
Битовая глубина : 16 бит
Метод сжатия : С потерями
Размер потока : 297 Мбайт (5%)
Заголовок : Профессиональный (многоголосый закадровый)
Язык : Russian
Аудио #4
Идентификатор : 5
Формат : AC-3
Формат/Информация : Audio Coding 3
Расширение режима : CM (complete main)
Идентификатор кодека : A_AC3
Продолжительность : 1 ч. 48 м.
Вид битрейта : Постоянный
Битрейт : 640 Кбит/сек
Канал(ы) : 6 канала(ов)
Расположение каналов : Front: L C R, Side: L R, LFE
Частота : 48,0 КГц
Битовая глубина : 16 бит
Метод сжатия : С потерями
Размер потока : 495 Мбайт (9%)
Заголовок : Оригинал
Язык : English
Текст #1
Идентификатор : 6
Формат : UTF-8
Идентификатор кодека : S_TEXT/UTF8
Идентификатор кодека/Информация : UTF-8 Plain Text
Заголовок : Russian
Язык : Russian
Текст #2
Идентификатор : 7
Формат : UTF-8
Идентификатор кодека : S_TEXT/UTF8
Идентификатор кодека/Информация : UTF-8 Plain Text
Заголовок : English
Язык : English
Download / Скачать

Хотите скачать бесплатно? Зарегистрируйтесь на сайте (ссылка на регистрацию). Pirat.ca - самый быстрый торрент трекер в рунете!

Как скачивать  ·   Что такое торрент  ·   Рейтинг и ограничения



Последний раз редактировалось: Resident (2012-04-06 15:20), всего редактировалось 1 раз

Пост 06-Апр-2012 20:47 (спустя 5 часов)

Топик был перенесен из форума Фильмы с авторским переводом в форум HD (Фильмы с авторским переводом)

anton966
 

arvideo

Корсар

Пост 07-Апр-2012 01:51 (спустя 10 часов)

[Q] 

Это за Гланца с Королёвой в авторский? cg

_________________
Судя по форумам, большинство людей не могут жить без того, что бы не наступить на одни и теже грабли. Раз пять, не меньше!
[Профиль]  [ЛС] 

Пост 14-Фев-2016 00:06 (спустя 3 года 10 месяцев)

Топик был перенесен из форума HD (Фильмы с Авторским переводом) в форум Архив (DVD / HD в Авторском переводе)
Причина переноса: сиде нет более 3 лет
gross1978
 
Показать сообщения:    
Ответить на тему

Текущее время: Сегодня 08:02

Часовой пояс: GMT + 4



Вы не можете начинать темы
Вы не можете отвечать на сообщения
Вы не можете редактировать свои сообщения
Вы не можете удалять свои сообщения
Вы не можете голосовать в опросах
Вы не можете прикреплять файлы к сообщениям
Вы не можете скачивать файлы

Майнать ▼