Туман / The Fog (Джон Карпентер / John Carpenter) [1980 г., Триллер, Мистика, Ужасы, HD-DVDRip, 720p] MVO + AVO (Гаврилов) + Original (Eng) + Subs (Rus, Eng)

Ответить на тему
 
Автор
Сообщение

Пост 15-Апр-2012 11:40

[Q] 

jekich

Корсар

Туман / The Fog -Год выпуска: 1980
Производство: США
Жанр: Триллер, Мистика, Ужасы
Продолжительность: 01:29:34
- Профессиональный (многоголосый, закадровый)
- Авторский (одноголосый, закадровый) | (Гаврилов)
Оригинальный аудиопоток: Английский
Субтитры: Русские, Английские
Режиссер: Джон Карпентер / John Carpenter
В ролях
Эдриенн Барбо, Джейми Ли Кёртис, Джанет Ли, Джон Хаусмен, Том Аткинс, Джеймс Каннинг, Чарльз Сайферс, Нэнси Кайс, Ти Митчел, Хэл Холбрук
Описание
Маленький рыболовецкий городок одержим духами погибших моряков. Ровно сто лет назад у скал разбилось судно с рыбаками, и вот теперь город окутывает плотный туман, который разрывают буйные призраки прошлого…- -Качество: HD-DVDRip
Формат: MKV
Стандарт разрешения: 720p
Видео кодек: AVC
Аудио кодек: AC3
Видео: 1280x548(2.35:1), 23.976 fps, 4843 Kbps, 0.288 bit/pix
Аудио #1: AC3, 448 Kbps, 48.0 KHz, 6 ch | MVO
Аудио #2: AC3, 192 Kbps, 48.0 KHz, 2 ch | AVO (Гаврилов)
Аудио #3: DTS, 1510 Kbps, 48.0 KHz, 6 ch | Original
Субтитры #1: Russian (SRT)
Субтитры #2: English (SRT)
General
Unique ID : 245744707877143593955613151239232340624 (0xB8E0B58B59087BB78A00180A49B4C290)
Complete name : G:\downloads\Tuman(1980).mkv
Format : Matroska
Format version : Version 2
File size : 4.37 GiB
Duration : 1h 29mn
Overall bit rate : 6 998 Kbps
Movie name : The fog (1980) - Release for HDCLUB
Encoded date : UTC 2009-07-15 18:10:33
Writing application : mkvmerge v2.9.7 ('Tenderness') built on Jul 1 2009 18:43:35
Writing library : libebml v0.7.7 + libmatroska v0.8.1
Video
ID : 1
Format : AVC
Format/Info : Advanced Video Codec
Format profile : High@L4.1
Format settings, CABAC : Yes
Format settings, ReFrames : 8 frames
Codec ID : V_MPEG4/ISO/AVC
Duration : 1h 29mn
Bit rate : 4 843 Kbps
Width : 1 280 pixels
Height : 548 pixels
Display aspect ratio : 2.35:1
Frame rate : 23.976 fps
Color space : YUV
Chroma subsampling : 4:2:0
Bit depth : 8 bits
Scan type : Progressive
Bits/(Pixel*Frame) : 0.288
Stream size : 2.94 GiB (67%)
Title : Release for HDCLUB
Writing library : x264 core 68 r1181M 49bf767
Encoding settings : cabac=1 / ref=8 / deblock=1:-3:-3 / analyse=0x3:0x113 / me=umh / subme=9 / psy_rd=1.0:0.0 / mixed_ref=1 / me_range=32 / chroma_me=1 / trellis=2 / 8x8dct=1 / cqm=0 / deadzone=21,11 / chroma_qp_offset=-2 / threads=12 / nr=0 / decimate=0 / mbaff=0 / bframes=5 / b_pyramid=0 / b_adapt=2 / b_bias=0 / direct=3 / wpredb=1 / keyint=250 / keyint_min=25 / scenecut=40 / rc=2pass / bitrate=4843 / ratetol=1.0 / qcomp=0.60 / qpmin=10 / qpmax=51 / qpstep=4 / cplxblur=20.0 / qblur=0.5 / ip_ratio=1.40 / pb_ratio=1.30 / aq=1:0.80
Language : English
Default : Yes
Forced : No
Audio #1
ID : 2
Format : AC-3
Format/Info : Audio Coding 3
Mode extension : CM (complete main)
Codec ID : A_AC3
Duration : 1h 29mn
Bit rate mode : Constant
Bit rate : 448 Kbps
Channel(s) : 6 channels
Channel positions : Front: L C R, Side: L R, LFE
Sampling rate : 48.0 KHz
Bit depth : 16 bits
Compression mode : Lossy
Stream size : 287 MiB (6%)
Title : AC3 5.1 @ 448 kbps - Многоголосый закадровый
Language : Russian
Default : Yes
Forced : Yes
Audio #2
ID : 3
Format : AC-3
Format/Info : Audio Coding 3
Mode extension : CM (complete main)
Codec ID : A_AC3
Duration : 1h 29mn
Bit rate mode : Constant
Bit rate : 192 Kbps
Channel(s) : 2 channels
Channel positions : Front: L R
Sampling rate : 48.0 KHz
Bit depth : 16 bits
Compression mode : Lossy
Stream size : 123 MiB (3%)
Title : AC3 2.0 @ 192 kbps - Одноголосый закадровый, А.Гаврилов
Language : Russian
Default : No
Forced : No
Audio #3
ID : 4
Format : DTS
Format/Info : Digital Theater Systems
Codec ID : A_DTS
Duration : 1h 29mn
Bit rate mode : Constant
Bit rate : 1 510 Kbps
Channel(s) : 6 channels
Channel positions : Front: L C R, Side: L R, LFE
Sampling rate : 48.0 KHz
Bit depth : 16 bits
Compression mode : Lossy
Stream size : 966 MiB (22%)
Title : DTS 5.1 @ 1536 kbps
Language : English
Default : No
Forced : No
Text #1
ID : 5
Format : UTF-8
Codec ID : S_TEXT/UTF8
Codec ID/Info : UTF-8 Plain Text
Language : Russian
Default : Yes
Forced : No
Text #2
ID : 6
Format : UTF-8
Codec ID : S_TEXT/UTF8
Codec ID/Info : UTF-8 Plain Text
Language : English
Default : No
Forced : No
Download / Скачать

Хотите скачать бесплатно? Зарегистрируйтесь на сайте (ссылка на регистрацию). Pirat.ca - самый быстрый торрент трекер в рунете!

Как скачивать  ·   Что такое торрент  ·   Рейтинг и ограничения

king177

Корсар

Пост 15-Апр-2012 11:58 (спустя 18 минут)

[Q] 

[Профиль]  [ЛС] 

Пост 15-Апр-2012 14:46 (спустя 2 часа 47 минут)

Топик был перенесен из форума Фильмы с авторским переводом в форум HD (Фильмы с авторским переводом)

anton966
 

ZlobiN

Корсар

Пост 16-Апр-2012 08:02 (спустя 20 часов)

[Q] 

[Профиль]  [ЛС] 

wolodka

Шкипер

Пост 22-Апр-2012 16:58 (спустя 6 дней)

[Q] 

Огромное спасибо!
[Профиль]  [ЛС] 

Пост 14-Фев-2016 17:22 (спустя 3 года 9 месяцев)

Топик был перенесен из форума HD (Фильмы с Авторским переводом) в форум Архив (DVD / HD в Авторском переводе)
Причина переноса: Сида нет более 2 лет
gross1978
 
Показать сообщения:    
Ответить на тему

Текущее время: Сегодня 07:55

Часовой пояс: GMT + 4



Вы не можете начинать темы
Вы не можете отвечать на сообщения
Вы не можете редактировать свои сообщения
Вы не можете удалять свои сообщения
Вы не можете голосовать в опросах
Вы не можете прикреплять файлы к сообщениям
Вы не можете скачивать файлы

Майнать ▼