Уважаемый Гость!
Вы можете поддержать проект и зарегистрироваться у наших партнеров - онлайн-стратегия MyLands. При регистрации в игре Вы получите код, который сможете активировать после регистрации на pirat.ca и получить 1000 дублонов.

Ваш код:
3bc14af8213a4505af8570c7bdcd59303a238355
 
     

ХХII Зимние Олимпийские Игры Сочи 2014 / Бобслей. Двойки. Заезд 1 и 2 / Мужчины (Россия 2 - Алексей Осин) [16.02.2014 г., SATRip, AVI, RU]

Ответить на тему
 
Автор
Сообщение

Пост 28-Фев-2014 17:20

[Q] 

UcrusPazzo

Бобслей. Двойки. Заезд 1 и 2 / МужчиныЖаркие. Зимние. Твои.Официальный сайт "Сочи 2014" -Год выпуска: 16.02.2014 г.
Вид спорта: Бобслей. Двойки. Заезд 1 и 2
Участники: Мужчины
Продолжительность: 02:14:53
Комментатор: Алексей Осин
Язык комментариев: русский-Арена: Санки (Сочи, Россия) 16 февраля 2014 года, суббота. 20:15 МСК-Качество видео: SATRip
Контейнер: AVI
Видео кодек: Xvid
Аудио кодек: MP3
Видео: 704x448 (1.57:1), 25 fps, XviD MPEG-4 ~1798 kbps avg, 0.23 bit/pixel
Аудио: 48 kHz, MPEG Layer 3, 2 ch, ~128.00 kbps avg
Бобслей. Расписание и результаты. Скачать.
1 Россия 1 Александр Зубков 2 Алексей Воевода
2 США 1 Стивен Холкомб 2 Стивен Лэнгтон
3 США 1 Кори Батнер 2 Кристофер Фогт
4 Швейцария 1 Бит Хефти 2 Алекс Бауман
5 Германия 1 Франческо Фридрих 2 Яннис Беккер
6 Канада 1 Джастин Криппс 2 Брайан Барнетт
7 Канада 1 Линдон Раш 2 Лассель Браун
8 Латвия 1 Оскарс Мелбардис 2 Даумантс Дрейшкенс
9 Германия 1 Томас Флоршюц 2 Кевин Куске
10 Канада 1 Крис Спринг 2 Джесси Ламсден
11 Россия 1 Александр Касьянов 2 Максим Белугин
12 США 1 Ник Каннингем 2 Даллас Робинсон
13 Швейцария 1 Рико Петер 2 Юрг Эггер
14 Германия 1 Максимилиан Арндт 2 Александр Рёдигер
15 Италия 1 Симоне Бертаццо 2 Симоне Фонтана
16 Латвия 1 Оскарс Киберманис 2 Вайрис Лейбомс
17 Румыния 1 Николае Истрате 2 Флорин Крачьюн
18 Южная Корея 1 Вон Юн-Джун 2 Со Юн-У
19 Франция 1 Лоик Костер 2 Ромен Хайнрих
20 Монако 1 Себастьен Гаттузо 2 Патрис Сервель
21 Великобритания 1 Лэймин Дин 2 Джон Бэйнс
22 Нидерланды 1 Эдвин ван Калкер 2 Брор ван дер Зейде
23 Австрия 1 Бенджамин Майер 2 Маркус Заммер
24 Чехия 1 Ян Врба 2 Михал Вацек
25 Южная Корея 1 Ким Тон-Хён 2 Чон Чон-Лин
26 Польша 1 Давид Купчик 2 Павел Мроз
27 Япония 1 Хироси Судзуки 2 Хисаси Миядзаки
28 Австралия 1 Хит Спенс 2 Данкан Харви
29 Сербия 1 Вук Раденович 2 Александар Бундало
30 Ямайка 1 Уинстон Уоттс 2 Марвин Диксон
Общее
Формат : AVI
Формат/Информация : Audio Video Interleave
Размер файла : 1,82 Гбайт
Продолжительность : 2 ч. 14 м.
Общий поток : 1936 Кбит/сек
Библиотека кодирования : VirtualDub build 32507/release
Видео
Идентификатор : 0
Формат : MPEG-4 Visual
Профиль формата : Advanced [email protected]
Параметр BVOP формата : 2
Параметр QPel формата : Нет
Параметр GMC формата : Без точки перехода
Параметр матрицы формата : Default (H.263)
Режим смешивания : Сжатый битовый поток
Идентификатор кодека : XVID
Идентификатор кодека/Подсказка : XviD
Продолжительность : 2 ч. 14 м.
Битрейт : 1799 Кбит/сек
Ширина : 704 пикселя
Высота : 448 пикселей
Соотношение сторон : 16:10
Частота кадров : 25,000 кадров/сек
Цветовое пространство : YUV
Субдискретизация насыщенности : 4:2:0
Битовая глубина : 8 бит
Тип развёртки : Прогрессивная
Метод сжатия : С потерями
Бит/(Пиксели*Кадры) : 0.228
Размер потока : 1,69 Гбайт (93%)
Библиотека кодирования : XviD 1.1.2 (UTC 2006-11-01)
Аудио
Идентификатор : 1
Формат : MPEG Audio
Версия формата : Version 1
Профиль формата : Layer 3
Режим : Joint stereo
Расширение режима : MS Stereo
Идентификатор кодека : 55
Идентификатор кодека/Подсказка : MP3
Продолжительность : 2 ч. 14 м.
Вид битрейта : Постоянный
Битрейт : 128 Кбит/сек
Каналы : 2 канала
Частота : 48,0 КГц
Метод сжатия : С потерями
Размер потока : 123 Мбайт (7%)
Выравнивание : Разделение по промежуткам
Продолжительность промежутка : 40 мс. (1,00 видеокадр)
Время предзагрузки промежутка : 500 мс.
Download / Скачать

Хотите скачать бесплатно? Зарегистрируйтесь на сайте (ссылка на регистрацию). Pirat.ca - самый быстрый торрент трекер в рунете!

Как скачивать  ·   Что такое торрент  ·   Рейтинг и ограничения

Пост 28-Фев-2014 17:43 (спустя 22 минуты)

Топик был перенесен из форума Зимняя Олимпиада в Сочи 2014 (Трюм) в форум Бобслей
UcrusPazzo
 
Показать сообщения:    
Ответить на тему

Текущее время: Сегодня 22:32

Часовой пояс: GMT + 4



Вы не можете начинать темы
Вы не можете отвечать на сообщения
Вы не можете редактировать свои сообщения
Вы не можете удалять свои сообщения
Вы не можете голосовать в опросах
Вы не можете прикреплять файлы к сообщениям
Вы не можете скачивать файлы

▼ Вниз