Уважаемый Гость!
Вы можете поддержать проект и зарегистрироваться у наших партнеров - онлайн-стратегия MyLands. При регистрации в игре Вы получите код, который сможете активировать после регистрации на pirat.ca и получить 1000 дублонов.

Ваш код:
1834ae75e9227261aad6e08fc139cfdee7634d27
 
     

ХХII Зимние Олимпийские Игры Сочи 2014 / Бобслей. Двойки. Заезд 2 / Женщины (Перший Національний) [18.02.2014 г., DVBRip, AVI, UA]

Ответить на тему
 
Автор
Сообщение

Пост 28-Фев-2014 18:54

[Q] 

UcrusPazzo

Бобслей. Двойки. Заезд 2 / ЖенщиныЖаркие. Зимние. Твои.Официальный сайт "Сочи 2014" -Год выпуска: 18.02.2014 г.
Вид спорта: Бобслей. Двойки. Заезд 2
Участники: Женщины
Продолжительность: 00:32:40
Комментатор: Какой-то дядька, он не представился
Язык комментариев: украинский-Арена: Санки (Сочи, Россия) 18 февраля 2014 года, вторник. 20:20 МСК-Качество видео: DVBRip
Контейнер: AVI
Видео кодек: DivX
Аудио кодек: MP3
Видео: 704x400 (1.76:1), 25 fps, DivX Codec 6.8.5/6.9.1 ~1799 kbps avg, 0.26 bit/pixel
Аудио: 48 kHz, MPEG Layer 3, 2 ch, ~128.00 kbps avg
Бобслей. Расписание и результаты. Скачать.
1 США 1 Элана Мейерс 2 Лорин Уильямс
2 Канада 1 Кейлли Хамфрис 2 Хитер Мойс
3 США 1 Джейми Грубел 2 Эйджа Эванс
4 Бельгия 1 Элфье Виллемсен 2 Ханна Эмили Марин
5 Германия 1 Сандра Кириазис 2 Франциска Фриц
6 Нидерланды 1 Эсме Кампхёйс 2 Юдит Вис
7 Россия 1 Ольга Стульнева 2 Людмила Удобкина
8 Германия 1 Катлин Мартини 2 Кристин Зенкель
9 Германия 1 Аня Шнайдерхайнце 2 Штефани Шнайдер
10 Швейцария 1 Фабинн Майер 2 Таня Майер
11 США 1 Джазмин Фенлэйтор 2 Лоло Джонс
12 Великобритания 1 Пола Уолкер 2 Ребека Уилсон
13 Канада 1 Дженнифер Кочетти 2 Челси Валуа
14 Австралия 1 Астрид Радьенович 2 Яна-Эмили Питтман
15 Австрия 1 Кристина Хенгстер 2 Виола Клайзер
16 Россия 1 Надежда Сергеева 2 Надежда Палеева
17 Румыния 1 Мария Константинн 2 Андреа Греку
18 Бразилия 1 Фабиана Сантос 2 Салли Маяра да Силва
19 Южная Корея 1 Ким Сун-Ок 2 Син Ми-Хва
Общее
Формат : AVI
Формат/Информация : Audio Video Interleave
Размер файла : 453 Мбайт
Продолжительность : 32 м.
Общий поток : 1938 Кбит/сек
Библиотека кодирования : VirtualDub build 32817/release
Видео
Идентификатор : 0
Формат : MPEG-4 Visual
Параметр BVOP формата : 1
Параметр QPel формата : Нет
Параметр GMC формата : Без точки перехода
Параметр матрицы формата : Default (H.263)
Режим смешивания : Сжатый битовый поток
Идентификатор кодека : DX50
Идентификатор кодека/Подсказка : DivX 5
Продолжительность : 32 м.
Битрейт : 1800 Кбит/сек
Ширина : 704 пикселя
Высота : 400 пикселей
Соотношение сторон : 16:9
Частота кадров : 25,000 кадров/сек
Цветовое пространство : YUV
Субдискретизация насыщенности : 4:2:0
Битовая глубина : 8 бит
Тип развёртки : Прогрессивная
Метод сжатия : С потерями
Бит/(Пиксели*Кадры) : 0.256
Размер потока : 420 Мбайт (93%)
Библиотека кодирования : DivX 6.8.5 (UTC 2009-08-20)
Аудио
Идентификатор : 1
Формат : MPEG Audio
Версия формата : Version 1
Профиль формата : Layer 3
Режим : Joint stereo
Расширение режима : MS Stereo
Идентификатор кодека : 55
Идентификатор кодека/Подсказка : MP3
Продолжительность : 32 м.
Вид битрейта : Постоянный
Битрейт : 128 Кбит/сек
Каналы : 2 канала
Частота : 48,0 КГц
Метод сжатия : С потерями
Размер потока : 29,9 Мбайт (7%)
Выравнивание : Разделение по промежуткам
Продолжительность промежутка : 40 мс. (1,00 видеокадр)
Время предзагрузки промежутка : 500 мс.
Download / Скачать

Хотите скачать бесплатно? Зарегистрируйтесь на сайте (ссылка на регистрацию). Pirat.ca - самый быстрый торрент трекер в рунете!

Как скачивать  ·   Что такое торрент  ·   Рейтинг и ограничения

Показать сообщения:    
Ответить на тему

Текущее время: Сегодня 00:59

Часовой пояс: GMT + 4



Вы не можете начинать темы
Вы не можете отвечать на сообщения
Вы не можете редактировать свои сообщения
Вы не можете удалять свои сообщения
Вы не можете голосовать в опросах
Вы не можете прикреплять файлы к сообщениям
Вы не можете скачивать файлы

▼ Вниз