Уважаемый Гость!
Вы можете поддержать проект и зарегистрироваться у наших партнеров - онлайн-стратегия MyLands. При регистрации в игре Вы получите код, который сможете активировать после регистрации на pirat.ca и получить 1000 дублонов.

Ваш код:
3bc14af8213a4505af8570c7bdcd59303a238355
 
     

ХХII Зимние Олимпийские Игры Сочи 2014 / Бобслей. Двойки. Заезд 3 / Женщины (Россия 2 - Алексей Осин) [19.02.2014 г., DVBRip, AVI, RU] [R.G. DOCpiratTV]

Ответить на тему
 
Автор
Сообщение

Пост 28-Фев-2014 20:40

[Q] 

UcrusPazzo

Бобслей. Двойки. Заезд 3 / ЖенщиныЖаркие. Зимние. Твои.Официальный сайт "Сочи 2014" -Год выпуска: 18.02.2014 г.
Вид спорта: Бобслей. Двойки. Заезд 3
Участники: Женщины
Продолжительность: 00:47:09
Комментатор: Алексей Осин
Язык комментариев: русский-Арена: Санки (Сочи, Россия) 19 февраля 2014 года, среда. 20:15 МСК-Качество видео: DVBRip
Контейнер: AVI
Видео кодек: XviD
Аудио кодек: Microsoft MPEG
Видео: 640x400 (1.60:1), 25 fps, XviD build 50 ~2184 kbps avg, 0.34 bit/pixel
Аудио: 48 kHz, Microsoft MPEG, 2 ch, ~192.00 kbps avg
Бобслей. Расписание и результаты. Скачать.
Автор рипа:
1 США 1 Элана Мейерс 2 Лорин Уильямс
2 Канада 1 Кейлли Хамфрис 2 Хитер Мойс
3 США 1 Джейми Грубел 2 Эйджа Эванс
4 Бельгия 1 Элфье Виллемсен 2 Ханна Эмили Марин
5 Германия 1 Сандра Кириазис 2 Франциска Фриц
6 Нидерланды 1 Эсме Кампхёйс 2 Юдит Вис
7 Россия 1 Ольга Стульнева 2 Людмила Удобкина
8 Германия 1 Катлин Мартини 2 Кристин Зенкель
9 Германия 1 Аня Шнайдерхайнце 2 Штефани Шнайдер
10 Швейцария 1 Фабинн Майер 2 Таня Майер
11 США 1 Джазмин Фенлэйтор 2 Лоло Джонс
12 Великобритания 1 Пола Уолкер 2 Ребека Уилсон
13 Канада 1 Дженнифер Кочетти 2 Челси Валуа
14 Австралия 1 Астрид Радьенович 2 Яна-Эмили Питтман
15 Австрия 1 Кристина Хенгстер 2 Виола Клайзер
16 Россия 1 Надежда Сергеева 2 Надежда Палеева
17 Румыния 1 Мария Константинн 2 Андреа Греку
18 Бразилия 1 Фабиана Сантос 2 Салли Маяра да Силва
19 Южная Корея 1 Ким Сун-Ок 2 Син Ми-Хва
Общее
Формат : AVI
Формат/Информация : Audio Video Interleave
Размер файла : 805 Мбайт
Продолжительность : 47 м.
Общий поток : 2386 Кбит/сек
Название фильма : XXII ЗОИ Сочи 2014 Бобслей Женщины (19.02.2014) Двойки 3-я попытка [R.G. DOCpiratTV]
Программа кодирования : VirtualDubMod 1.5.10.3 | www.virtualdub-fr.org || (build 2550/release)
Правообладатель : R.G. DOCpiratTV (UcrusPazzo)
Видео
Идентификатор : 0
Формат : MPEG-4 Visual
Профиль формата : Advanced [email protected]
Параметр BVOP формата : 2
Параметр QPel формата : Нет
Параметр GMC формата : Без точки перехода
Параметр матрицы формата : Default (MPEG)
Идентификатор кодека : XVID
Идентификатор кодека/Подсказка : XviD
Продолжительность : 47 м.
Битрейт : 2184 Кбит/сек
Ширина : 640 пикселей
Высота : 400 пикселей
Соотношение сторон : 16:10
Частота кадров : 25,000 кадров/сек
Цветовое пространство : YUV
Субдискретизация насыщенности : 4:2:0
Битовая глубина : 8 бит
Тип развёртки : Прогрессивная
Метод сжатия : С потерями
Бит/(Пиксели*Кадры) : 0.341
Размер потока : 737 Мбайт (92%)
Библиотека кодирования : XviD 1.2.1 (UTC 2008-12-04)
Аудио
Идентификатор : 1
Формат : MPEG Audio
Версия формата : Version 1
Профиль формата : Layer 2
Идентификатор кодека : 50
Продолжительность : 47 м.
Вид битрейта : Постоянный
Битрейт : 192 Кбит/сек
Каналы : 2 канала
Частота : 48,0 КГц
Метод сжатия : С потерями
Размер потока : 64,7 Мбайт (8%)
Выравнивание : Соединение по промежуткам
Продолжительность промежутка : 40 мс. (1,00 видеокадр)
Время предзагрузки промежутка : 504 мс.
Download / Скачать

Хотите скачать бесплатно? Зарегистрируйтесь на сайте (ссылка на регистрацию). Pirat.ca - самый быстрый торрент трекер в рунете!

Как скачивать  ·   Что такое торрент  ·   Рейтинг и ограничения

Показать сообщения:    
Ответить на тему

Текущее время: Сегодня 22:34

Часовой пояс: GMT + 4



Вы не можете начинать темы
Вы не можете отвечать на сообщения
Вы не можете редактировать свои сообщения
Вы не можете удалять свои сообщения
Вы не можете голосовать в опросах
Вы не можете прикреплять файлы к сообщениям
Вы не можете скачивать файлы

▼ Вниз