ML
     
  Уважаемый Гость!
Вы можете поддержать проект и зарегистрироваться у наших партнеров - онлайн-стратегия MyLands. При регистрации в игре Вы получите код, который сможете активировать после регистрации на pirat.ca и получить 1000 дублонов.

Ваш код:
8dcb839cf1b47e56d6dc42d17f26b3e4822e9aee
 
     

Легенды БАМа (Олег Витвицкий) [2009 г., Документальный, TVRip]

Ответить на тему
 
Автор
Сообщение

Пост 08-Дек-2011 20:07

[Q] 

Степаныч

Легенды БАМа
Год выпуска: 2009
Российская премьера: 11.07.2009
Производство: Россия.Канал Вести
Жанр: Документальный
Продолжительность: 00:43:40
Режиссер: Олег Витвицкий
Описание: Фильм посвящён 35-летию с начала строительства БАМа. Об истории создания дороги и героическом труде советских людей рассказывает кинохроника и очевидцы тех лет.
Источник/Качество: TVRip
Формат: MPEG
Видео кодек: MPEG2
Аудио кодек: MPEG Audio
Видео: MPEG 2, 720x576 (4/3), 25.000 fps, 2 048 Kbps (0.191 bit/pixel)
Аудио: MP2, 48.0 KHz, 1 ch, 160 Kbps, CBR
Формат : MPEG-PS
Размер файла : 698 Мбайт
Продолжительность : 43 м.
Общий поток : 2234 Кбит/сек
Видео
Идентификатор : 224 (0xE0)
Формат : MPEG Video
Версия формата : Version 2
Профиль формата : [email protected]
Параметр BVOP формата : Да
Параметр матрицы формата : По умолчанию
Параметры GOP формата : M=3, N=15
Продолжительность : 43 м.
Вид битрейта : Переменный
Битрейт : 2048 Кбит/сек
Ширина : 720 пикс.
Высота : 576 пикс.
Соотношение сторон : 4:3
Частота кадров : 25,000 кадр/сек
Стандарт вещания : SECAM
Цветовое пространство : YUV
Подвыборка цветности : 4:2:0
Битовая глубина : 8 бит
Тип развёртки : Прогрессивная
Метод сжатия : С потерями
Бит/(Пиксели*Кадры) : 0.198
Размер потока : 634 Мбайт (91%)
Аудио
Идентификатор : 192 (0xC0)
Формат : MPEG Audio
Версия формата : Version 1
Профиль формата : Layer 2
Продолжительность : 43 м.
Вид битрейта : Постоянный
Битрейт : 160 Кбит/сек
Канал(ы) : 1 канал
Частота : 48,0 КГц
Метод сжатия : С потерями
Задержка видео : -16 мс.
Размер потока : 50,0 Мбайт (7%)



Download / Скачать

Хотите скачать бесплатно? Зарегистрируйтесь на сайте (ссылка на регистрацию). Pirat.ca - самый быстрый торрент трекер в рунете!

Как скачивать  ·   Что такое торрент  ·   Рейтинг и ограничения

Показать сообщения:    
Ответить на тему

Текущее время: Сегодня 04:16

Часовой пояс: GMT + 4



Вы не можете начинать темы
Вы не можете отвечать на сообщения
Вы не можете редактировать свои сообщения
Вы не можете удалять свои сообщения
Вы не можете голосовать в опросах
Вы не можете прикреплять файлы к сообщениям
Вы не можете скачивать файлы

▼ Вниз