ML
     
  Уважаемый Гость!
Вы можете поддержать проект и зарегистрироваться у наших партнеров - онлайн-стратегия MyLands. При регистрации в игре Вы получите код, который сможете активировать после регистрации на pirat.ca и получить 1000 дублонов.

Ваш код:
0fcd44bd35319f69313aa6e53b31c51cbff1c942
 
     

Еврейская оккупация Украины / Jewish occupation of Ukraine [2011 г., Политика, теории заговора, CamRip]

Ответить на тему
 
Автор
Сообщение

Пост 08-Июл-2012 16:53

[Q] 

Степаныч

Еврейская оккупация Украины / Jewish occupation of Ukraine
Год выпуска: 2011
Страна: Украина
Жанр: Политика, теории заговора
Продолжительность: 00:22:42
Перевод: Не требуется
Субтитры: русские
Описание: В этой видеозаписи показано одно из заседаний Днепропетровской еврейской общины,
на котором руководителем общины города Боголюбовым была произнесена фраза:
"Сегодня мы можем утверждать что Днепропетровск стал еврейской столицей Украины".
На заседание был приглашен президент Израиля Шимон Перес, который высказал свою
удовлетворенность делами евреев в Украине, также звучали всевозможные красивые
фразы с завуалированным смыслом (как всегда в их репертуаре), впрочем скрытая суть
проговариваемого ими все равно видна.
================================================================================
Каждый пусть сам сделает собственные выводы, после просмотра видео.
Качество: CamRip
Формат: MPEG
Видео кодек: AVC
Аудио кодек: AC3
Видео: AVC, 450x360 (5/4), 25.000 fps, 297 Kbps (0.073 bit/pixel)
Аудио: AAC LC, 44.1 KHz, 2 ch, 96.0 Kbps, VBR
Формат : MPEG-4
Профиль формата : Base Media / Version 2
Идентификатор кодека : mp42
Размер файла : 64,6 Мбайт
Продолжительность : 22 м.
Общий поток : 398 Кбит/сек
Дата кодирования : UTC 2011-01-23 00:11:18
Дата пометки : UTC 2011-01-23 00:11:18
Видео
Идентификатор : 1
Формат : AVC
Формат/Информация : Advanced Video Codec
Профиль формата : [email protected]
Параметр CABAC формата : Нет
Параметр ReFrames формата : 1 кадр
Идентификатор кодека : avc1
Идентификатор кодека/Информация : Advanced Video Coding
Продолжительность : 22 м.
Вид битрейта : Переменный
Битрейт : 297 Кбит/сек
Максимальный битрейт : 1428 Кбит/сек
Ширина : 450 пикс.
Высота : 360 пикс.
Соотношение сторон : 5:4
Режим частоты кадров : Постоянный
Частота кадров : 25,000 кадр/сек
Цветовое пространство : YUV
Подвыборка цветности : 4:2:0
Битовая глубина : 8 бит
Тип развёртки : Прогрессивная
Бит/(Пиксели*Кадры) : 0.073
Размер потока : 48,2 Мбайт (75%)
Дата пометки : UTC 2011-01-23 00:11:39
Аудио
Идентификатор : 2
Формат : AAC
Формат/Информация : Advanced Audio Codec
Профиль формата : LC
Идентификатор кодека : 40
Продолжительность : 22 м.
Вид битрейта : Переменный
Битрейт : 96,0 Кбит/сек
Максимальный битрейт : 160 Кбит/сек
Канал(ы) : 2 канала(ов)
Расположение каналов : Front: L R
Частота : 44,1 КГц
Метод сжатия : С потерями
Размер потока : 15,6 Мбайт (24%)
Заголовок : (C) 2007 Google Inc. v08.13.2007.
Дата кодирования : UTC 2011-01-23 00:11:26
Дата пометки : UTC 2011-01-23 00:11:39



Download / Скачать

Хотите скачать бесплатно? Зарегистрируйтесь на сайте (ссылка на регистрацию). Pirat.ca - самый быстрый торрент трекер в рунете!

Как скачивать  ·   Что такое торрент  ·   Рейтинг и ограничения

Merzogitov

204

Пост 08-Июл-2012 17:19 (спустя 25 минут)

[Q] 

bj bj bj bj bj bj

_________________

[Профиль]  [ЛС] 

UcrusPazzo

7670

Пост 09-Июл-2012 09:13 (спустя 15 часов)

[Q] 

Спасибо дорогой Степик за это! Ох бы им туда бомбочку положить!
У меня нет слов..... да и нельзя тут....

_________________
[Профиль]  [ЛС] 

Соломон Израэлич

Морской Волк

28

Пост 06-Дек-2012 12:41 (спустя 4 месяца 28 дней)

[Q] 

Тут вся правда о сионизме (еврейском фашизме), только факты.
[Профиль]  [ЛС] 

днепрянен

Морской Волк

Пост 23-Июн-2013 00:39 (спустя 6 месяцев 16 дней)

[Q] 

am
[Профиль]  [ЛС] 

Olegarkh73

Корсар

240

Пост 13-Авг-2013 21:43 (спустя 1 месяц 20 дней)

[Q] 

Автору респект!!! Спасибо!!! Лови бочку
[Профиль]  [ЛС] 
Показать сообщения:    
Ответить на тему

Текущее время: Сегодня 02:10

Часовой пояс: GMT + 4



Вы не можете начинать темы
Вы не можете отвечать на сообщения
Вы не можете редактировать свои сообщения
Вы не можете удалять свои сообщения
Вы не можете голосовать в опросах
Вы не можете прикреплять файлы к сообщениям
Вы не можете скачивать файлы

▼ Вниз