ML
     
  Уважаемый Гость!
Вы можете поддержать проект и зарегистрироваться у наших партнеров - онлайн-стратегия MyLands. При регистрации в игре Вы получите код, который сможете активировать после регистрации на pirat.ca и получить 1000 дублонов.

Ваш код:
f612af22ea70acf5cbe90707ac5a076d215f8f7f
 
     

Тайны века. Последняя ночь "Титаника" (Сергей Кожевников) [2012 г., Документальный, SATRip]

Ответить на тему
 
Автор
Сообщение

Пост 26-Авг-2012 20:11

[Q] 

Dizell2102

-Тайны века. Последняя ночь "Титаника"-- Производство: Россия, ТК Останкино
Жанр: Документальный
Год выпуска: 2012 г.
Продолжительность: 00:41:57
Перевод: Не требуется
Режиссер: Сергей Кожевников-В ролях: Сергей Медведев-Описание: Никто никогда не даст точного, достоверного ответа на многочисленные вопросы о причинах самой громкой катастрофы ХХ века - гибели крупнейшего пассажирского лайнера. На протяжении века высказываются все новые и новые предположения. Авторы фильма "Последняя ночь "Титаника" выдвинут свою, сенсационную версию и откроют новые тайны первого и последнего плавания "непотопляемого" "Титаника". Фильм представляет собой исторический детектив. Главная интрига сюжета - это сопоставление официальной версии и причин, о которых долгое время предпочитали умалчивать. По одной из гипотез, гибель "Титаника" - самая огромная страховая афера прошлого столетия. Авторы представят в фильме подлинные документальные материалы, которые прокомментируют ведущие российские и зарубежные специалисты. Будут показаны уникальные кадры, сделанные в глубинах Северной Атлантики. К лежащему на дне океана легендарному "Титанику" погружаются два российских глубоководных аппарата "Мир-1" и "Мир-2". На глубину почти в 4 километра с поверхности опускают огромную платформу с прожекторами. Лучи света выхватывают из безмолвного океанского мрака носовую часть затонувшего судна. В качестве безмолвных свидетелей в фильме выступят и подлинные вещи пассажиров "Титаника", поднятые во время последних экспедиций.-Качество видео: SATRip
Формат видео: AVI
Видео кодек: XviD
Аудио кодек: MP3
Видео: 720x400 (1.80:1), 25 fps, XviD build 64 ~1499 kbps avg, 0.21 bit/pixel
Аудио: 48 kHz, MPEG Layer 3, 2 ch, ~192.00 kbps avg
Cубтитры: отсутствуют
Полное имя : C:\Users\Dizell\Desktop\Poslednjaja.noch.Titanika.2012.XviD.SATRip-Pirat.ca.avi
Формат : AVI
Формат/Информация : Audio Video Interleave
Размер файла : 512 Мбайт
Продолжительность : 41 м.
Общий поток : 1705 Кбит/сек
Программа кодирования : XviD4PSP 6.0 / 54.14.100
Видео
Идентификатор : 0
Формат : MPEG-4 Visual
Профиль формата : Advanced [email protected]
Параметр BVOP формата : 1
Параметр QPel формата : Нет
Параметр GMC формата : Без точки перехода
Параметр матрицы формата : Default (H.263)
Идентификатор кодека : XVID
Идентификатор кодека/Подсказка : XviD
Продолжительность : 41 м.
Битрейт : 1501 Кбит/сек
Ширина : 720 пикселей
Высота : 400 пикселей
Соотношение сторон : 16:9
Частота кадров : 25,000 кадров/сек
Цветовое пространство : YUV
Субдискретизация насыщенности : 4:2:0
Битовая глубина : 8 бит
Тип развёртки : Чересстрочная
Порядок развёртки : Нижнее поле первое
Метод сжатия : С потерями
Бит/(Пиксели*Кадры) : 0.208
Размер потока : 450 Мбайт (88%)
Библиотека кодирования : XviD 64
Аудио
Идентификатор : 1
Формат : MPEG Audio
Версия формата : Version 1
Профиль формата : Layer 3
Режим : Joint stereo
Расширение режима : MS Stereo
Идентификатор кодека : 55
Идентификатор кодека/Подсказка : MP3
Продолжительность : 41 м.
Вид битрейта : Постоянный
Битрейт : 192 Кбит/сек
Каналы : 2 канала
Частота : 48,0 КГц
Метод сжатия : С потерями
Размер потока : 57,6 Мбайт (11%)
Выравнивание : Соединение по промежуткам
Продолжительность промежутка : 24 мс. (0,60 видеокадр)
Библиотека кодирования : LAME3.99.4
Download / Скачать

Хотите скачать бесплатно? Зарегистрируйтесь на сайте (ссылка на регистрацию). Pirat.ca - самый быстрый торрент трекер в рунете!

Как скачивать  ·   Что такое торрент  ·   Рейтинг и ограничения



Последний раз редактировалось: Dizell2102 (2012-08-26 22:15), всего редактировалось 1 раз
Показать сообщения:    
Ответить на тему

Текущее время: Сегодня 00:26

Часовой пояс: GMT + 4



Вы не можете начинать темы
Вы не можете отвечать на сообщения
Вы не можете редактировать свои сообщения
Вы не можете удалять свои сообщения
Вы не можете голосовать в опросах
Вы не можете прикреплять файлы к сообщениям
Вы не можете скачивать файлы

▼ Вниз