ML
     
  Уважаемый Гость!
Вы можете поддержать проект и зарегистрироваться у наших партнеров - онлайн-стратегия MyLands. При регистрации в игре Вы получите код, который сможете активировать после регистрации на pirat.ca и получить 1000 дублонов.

Ваш код:
9cfe162481db953a6549f32179d7b3900b8b8643
 
     

Энергия из вакуума. Часть 10 - Магнитный генератор Кромри / Energy from the vacuum. Part 10 - Kromrey Converter (Энтони Креддок) [2008 г., документальный, DVDRip-AVC] VO

Ответить на тему
 
Автор
Сообщение

Пост 22-Сен-2012 03:40

[Q] 

globalwave

Лоцман

-Энергия из вакуума. Часть 10 - Магнитный генератор Кромри / Energy from the vacuum. Part 10 - Kromrey Converter-- Производство: США
Жанр: документальный
Год выпуска: 2008 г.
Продолжительность: 02:04:33
Перевод: Профессиональный (одноголосый, закадровый)
Автор(ы) перевода: GlobalWave
Режиссер: Энтони Креддок-В ролях: Джон Бедини, Билл Дженкинс, Стив Уорс, Энтони Креддок-Описание: Нам постоянно говорят, что огромная цена энергии, которую мы должны платить, это само собой разумеющееся. Чтобы уменьшить ее стоимость, мы храним ее, используем энергию солнца, ветра, другие устройства, но мало что можем сделать, потому что официальная наука говорит о существовании фундаментальных законов физики, которые нельзя нарушить. Но я считаю иначе - именно этими идеями и осуществляется контроль над нашими умами.
Но существует ряд увлеченных настоящих ученых, которые отказываются признавать, что Создатель дал нам именно те законы физики, которые так безапелляционно навязываются официальными учебниками. Настоящие ученые имеют непредвзятое мнение и настроены решительно на то, чтобы найти настоящую альтернативу.
Была разработана новая технология, которая демонстрирует, что на планете, где мы живем, нас всегда окружает океан энергии. Эта новая технология позволяет подключиться к этому океану энергии и превратить его в бесконечный источник энергии пригодной для использования. Вы увидите молодого гения, который принес нам это чудо техники. Он будет стоять здесь и все сам продемонстрирует. Впервые в истории Таун Холла будет продемонстрирована модель простого рабочего устройства. Уверяю, вы будете поражены тем, что увидите. Если вы пойдете в Калифорнийский технический институт или в любой другой колледж, то вам везде скажут, что этого нельзя сделать, потому что это невозможно.
Вместо того, чтобы бороться со свободной энергией, лучше встаньте на нашу сторону, присоедините свой голос к голосам других людей, чтобы заставить правительство, крупный бизнес и банковские структуры воспользоваться их огромным влиянием и внедрить эту технологию в жизнь. Нужно заставить физиков построить новую науку, очищенную от догм и постулатов. Потому что сейчас официальные наука и техника часто основаны на отбросах, а не на достижениях настоящей науки.
Развитие техники не остановить, оно продолжается во всем мире. И мне кажется, что этот гений сможет изменить мир. Его решение подарить свою работу человечеству, а не хранить ее взаперти, говорит само за себя. Словами этого всего не выразить. Я представляю вам мистера Джона Си Бедини.
Билл Дженкинс
Релиз: GlobalWave-
Качество видео: DVDRip-AVC
Формат видео: MKV
Видео кодек: AVC (x264)
Аудио кодек: MP3
Видео: 720x480 (1.50:1), 23.976 fps, AVC (x264), [email protected], ~929 kbps avg, 0.113 bit/pixel
Аудио: 48 kHz, MPEG Layer 3, 1 ch, ~64.00 kbps avg
Cубтитры: отсутствуют
General
Format : Matroska
File size : 903 MiB
Duration : 2h 4mn
Overall bit rate : 1 013 Kbps
Encoded date : UTC 2012-09-07 08:28:00
Writing application : mkvmerge v5.8.0 ('No Sleep / Pillow') built on Sep 2 2012 15:37:04
Writing library : libebml v1.2.3 + libmatroska v1.3.0
Video
ID : 1
Format : AVC
Format/Info : Advanced Video Codec
Format profile : [email protected]
Format settings, CABAC : Yes
Format settings, ReFrames : 3 frames
Muxing mode : Header stripping
Codec ID : V_MPEG4/ISO/AVC
Duration : 2h 4mn
Bit rate : 929 Kbps
Width : 720 pixels
Height : 480 pixels
Display aspect ratio : 16:9
Original display aspect ratio : 3:2
Frame rate : 23.810 fps
Original frame rate : 23.976 fps
Standard : NTSC
Color space : YUV
Chroma subsampling : 4:2:0
Bit depth : 8 bits
Scan type : Progressive
Bits/(Pixel*Frame) : 0.113
Stream size : 828 MiB (92%)
Writing library : x264 core 96 r1613kMod 81e75e9
Encoding settings : cabac=1 / ref=3 / deblock=1:0:0 / analyse=0x3:0x13 / me=umh / subme=7 / psy=1 / psy_rd=1.00:0.00 / mixed_ref=1 / me_range=16 / chroma_me=1 / trellis=1 / 8x8dct=1 / cqm=0 / deadzone=21,11 / fast_pskip=1 / chroma_qp_offset=-2 / threads=4 / sliced_threads=1 / slices=4 / nr=0 / decimate=1 / interlaced=0 / constrained_intra=0 / bframes=0 / weightp=2 / keyint=250 / keyint_min=25 / scenecut=40 / intra_refresh=0 / rc=cqp / mbtree=0 / qp=27 / ip_ratio=1.40 / aq=0
Language : Russian
Audio
ID : 2
Format : MPEG Audio
Format version : Version 1
Format profile : Layer 3
Muxing mode : Header stripping
Codec ID : A_MPEG/L3
Codec ID/Hint : MP3
Duration : 2h 4mn
Bit rate mode : Constant
Bit rate : 64.0 Kbps
Channel(s) : 1 channel
Sampling rate : 48.0 KHz
Compression mode : Lossy
Stream size : 57.0 MiB (6%)
Language : Russian
Смотрите также:
Руководство по однополюсным двигателям Бедини (рус.)
Научный сериал «Энергия из вакуума»
д/ф «История магнитного генератора Джона Серла»
д/ф «Потерянные секреты Николы Теслы»
д/ф «Генератор Тесла (Грузинский вариант)»
д/ф «Тяжелый Уотергейт - Война против холодного ядерного синтеза»
д/ф «Кто убил электромобиль»
д/ф «Новая теория атомного ядра - Болотов Борис Васильевич»
д/ф «Начало импульсной энергетики будущего - Канарев Ф.М.»
Download / Скачать

Хотите скачать бесплатно? Зарегистрируйтесь на сайте (ссылка на регистрацию). Pirat.ca - самый быстрый торрент трекер в рунете!

Как скачивать  ·   Что такое торрент  ·   Рейтинг и ограничения



Последний раз редактировалось: globalwave (2012-09-22 14:00), всего редактировалось 1 раз
Показать сообщения:    
Ответить на тему

Текущее время: Сегодня 06:00

Часовой пояс: GMT + 4



Вы не можете начинать темы
Вы не можете отвечать на сообщения
Вы не можете редактировать свои сообщения
Вы не можете удалять свои сообщения
Вы не можете голосовать в опросах
Вы не можете прикреплять файлы к сообщениям
Вы не можете скачивать файлы

▼ Вниз