ML
     
  Уважаемый Гость!
Вы можете поддержать проект и зарегистрироваться у наших партнеров - онлайн-стратегия MyLands. При регистрации в игре Вы получите код, который сможете активировать после регистрации на pirat.ca и получить 1000 дублонов.

Ваш код:
8b752b428cf60a012c159dcae592cd1392170115
 
     

Знания Иллюминати / Illuminati Knowledge (Illuminati Insider) [2012 г., документальный, HDRip]

Ответить на тему
 
Автор
Сообщение

Пост 26-Сен-2012 22:48

[Q] 

Olegarkh73

Корсар

-Знания Иллюминати / Illuminati Knowledge-- Производство: Россия
Жанр: документальный
Год выпуска: 2012 г.
Продолжительность: 04:09:3
Перевод: Не требуется
Режиссер: Illuminati Insider-Описание: Автор фильма больной раком , выдаёт всю информацию которую ему передал Krixen (как он представился) - масон 32-ого градуса.
Цитата автора: "Теперь после двух лет, проведя собственный анализ, я пришел к выводу что Krixen, передал мне подлинное знание Иллюминати. Однако я не имею понятия откуда он всё это узнал если он масон. Оно включает 42 пункта разнообразной информации,первым в котором стоит полая земля.Я смотрю на этот список,и некоторые вещи ставят меня в тупик и по сей день,потому что в отличии от полой Земли я вообще не знаю как их доказать. Я работаю над этим."-Качество видео: HDRip
Формат видео: AVI
Видео кодек: XviD
Аудио кодек: MP3
Видео: 720x400 (1.80:1), 25 fps, XviD build 63 ~1003 kbps avg, 0.14 bit/pixel
Аудио: 44.100 kHz, MPEG Layer 3, 2 ch, ~128.00 kbps avg
Cубтитры: отсутствуют
Формат : AVI
Формат/Информация : Audio Video Interleave
Профиль формата : OpenDML
Размер файла : 1,98 Гбайт
Продолжительность : 4 ч. 9 м.
Общий поток : 1138 Кбит/сек
Программа кодирования : XviD4PSP 6.0 / 53.1.0
Видео
Идентификатор : 0
Формат : MPEG-4 Visual
Профиль формата : [email protected]
Параметр BVOP формата : Нет
Параметр QPel формата : Нет
Параметр GMC формата : Без точки перехода
Параметр матрицы формата : Default (H.263)
Идентификатор кодека : XVID
Идентификатор кодека/Подсказка : XviD
Продолжительность : 4 ч. 9 м.
Битрейт : 998 Кбит/сек
Ширина : 720 пикселей
Высота : 400 пикселей
Соотношение сторон : 16:9
Частота кадров : 25,000 кадров/сек
Цветовое пространство : YUV
Субдискретизация насыщенности : 4:2:0
Битовая глубина : 8 бит
Тип развёртки : Прогрессивная
Метод сжатия : С потерями
Бит/(Пиксели*Кадры) : 0.139
Размер потока : 1,74 Гбайт (88%)
Библиотека кодирования : XviD 63
Аудио
Идентификатор : 1
Формат : MPEG Audio
Версия формата : Version 1
Профиль формата : Layer 3
Режим : Joint stereo
Идентификатор кодека : 55
Идентификатор кодека/Подсказка : MP3
Продолжительность : 4 ч. 9 м.
Вид битрейта : Постоянный
Битрейт : 128 Кбит/сек
Каналы : 2 канала
Частота : 44,1 КГц
Метод сжатия : С потерями
Размер потока : 228 Мбайт (11%)
Выравнивание : Соединение по промежуткам
Продолжительность промежутка : 26 мс. (0,65 видеокадр)
Библиотека кодирования : LAME3.98.2
Download / Скачать

Хотите скачать бесплатно? Зарегистрируйтесь на сайте (ссылка на регистрацию). Pirat.ca - самый быстрый торрент трекер в рунете!

Как скачивать  ·   Что такое торрент  ·   Рейтинг и ограничения



Последний раз редактировалось: Olegarkh73 (2012-09-27 16:06), всего редактировалось 2 раз(а)

me14

999

Пост 26-Сен-2012 23:58 (спустя 1 час 10 минут)

[Q] 

МОЛОДЦОМ!

_________________
Если вы все еще не забанены - это не ваша заслуга, а модераторская недоработка.
[Профиль]  [ЛС] 

Alexeichh

Лоцман

Пост 27-Сен-2012 06:28 (спустя 6 часов)

[Q] 

Спасибо!!! стою на раздаче!
[Профиль]  [ЛС] 

havey

Штурман

Пост 27-Сен-2012 16:58 (спустя 10 часов)

[Q] 

По мне бред, сбивчиво как-то
[Профиль]  [ЛС] 

WWsimf

Флибустьер

Пост 27-Сен-2012 20:07 (спустя 3 часа)

[Q] 

[Профиль]  [ЛС] 

Oksika

Флибустьер

Пост 28-Сен-2012 16:23 (спустя 20 часов)

[Q] 

Полная белеберда!
Косноязычный, картавый 25-летний салопет возомнил о себе, что он мастер.
Сделал выборку из общедоступных источников: викопедии, чужих док.фильмом (об авторстве которых умолчал), печатных изданий – смолол всё это вперемешку.
Ни о каком илюминати! Просто – обо всём: планеты, гены, машины… Полный бред! Ощущение – общественного сортира! Обо всём, давно уже всеми отрыганном.
Приправленное авторскими перлами.
2,08,20
«А вообще, вы адекватны? Всякая шалупонь типа анунаков сюда не может высадиться и командовать».
2,10,10
«Я расскажу вкратце, что же произошло, ш-шло, о высадке анунаков, по моей версии».
Конечно, удалю эту «шалупонь», которую могу назвать «кидаловом» – то же мне «инсайдер иллюминате».
[Профиль]  [ЛС] 

UcrusPazzo

7670

Пост 28-Сен-2012 16:26 (спустя 3 минуты)

[Q] 

Oksika, аккуратно с выражениями! Пока устный пред!

_________________
[Профиль]  [ЛС] 

Oksika

Флибустьер

Пост 28-Сен-2012 16:45 (спустя 18 минут)

[Q] 

UcrusPazzo,
Принимаю и извиняюсь. Буду аккуратней.
[Профиль]  [ЛС] 

Oksika

Флибустьер

Пост 28-Сен-2012 17:24 (спустя 38 минут)

[Q] 

UcrusPazzo,
Но по существу, я сказала правду – так, как увиделось и УСЛЫШАЛОСЬ.
Название броское – а содержание, мягко говоря, не соответствует.
Надеюсь, так на этой шхуне можно.
И о рифах по курсу оставляю за собой право – сообщать (аккуратно).
[Профиль]  [ЛС] 
Показать сообщения:    
Ответить на тему

Текущее время: Сегодня 06:19

Часовой пояс: GMT + 4



Вы не можете начинать темы
Вы не можете отвечать на сообщения
Вы не можете редактировать свои сообщения
Вы не можете удалять свои сообщения
Вы не можете голосовать в опросах
Вы не можете прикреплять файлы к сообщениям
Вы не можете скачивать файлы

▼ Вниз