ML
     
  Уважаемый Гость!
Вы можете поддержать проект и зарегистрироваться у наших партнеров - онлайн-стратегия MyLands. При регистрации в игре Вы получите код, который сможете активировать после регистрации на pirat.ca и получить 1000 дублонов.

Ваш код:
8dcb839cf1b47e56d6dc42d17f26b3e4822e9aee
 
     

Энергия из вакуума. Часть 11 - Магнитный шлюз Бедини и принципы двигателя Говарда Джонсона / Energy from the vacuum. Part 11 - Magnetic gates and Howard Johnson (Энтони Креддок) [2009 г., документальный, DVDRip-AVC] VO

Ответить на тему
 
Автор
Сообщение

Пост 29-Сен-2012 03:23

[Q] 

globalwave

Лоцман

-Энергия из вакуума. Часть 11 - Магнитный шлюз Бедини и принципы двигателя Говарда Джонсона / Energy from the vacuum. Part 11 - Magnetic gates and Howard Johnson -- Производство: США
Жанр: документальный
Год выпуска: 2009 г.
Продолжительность: 02:11:28
Перевод: Профессиональный (одноголосый, закадровый)
Автор(ы) перевода: GlobalWave
Режиссер: Энтони Креддок-В ролях: Джон Бедини, Энтони Креддок-Описание: Я изучал магнитные поля и хотел понять, как они работают и сделал магнитную сборку, которая выбрасывает энергию магнитного поля в виде узкого луча. Именно на основе этого принципа я разработал однополюсный двигатель. Если у меня будет по-настоящему узкий луч, то при прохождении над катушкой мне не нужно тратить очень много энергии. И у меня появляется в 4 раза больше энергии, чтобы вращать двигатель. И все это достигается за счет ослабления двух южных полюсов. Поле, которое образует магнит, на самом деле не является частью этого магнита. Оно является частью пространства.
Говард занимался магнитами многие годы. Я знаю, что в последнее время он болел, но Говард хотел, чтобы люди узнали о его изобретениях. Он хотел, чтобы люди знали о том, что он делал, и как работают магниты. Я объясняю максимально доступно для каждого, и не собираюсь грузить вас математическими выкладками и всем прочим, я могу просто рассказать, как это делается, а вы сможете провести свои эксперименты, ничего не зная об этих картах магнитных полей. При сборке двигателя Говарда Джонсона, думаю, что большинство людей попробует его собрать после просмотра этого фильма. Вам нужно понять то, что знал Говард о магнитных полях. Нужно помнить, что магнитные поля Говарда необычные. Он распиливал магниты, чтобы изготовить сборку.
Запомните, Говард Джонсон был гением. Он придумал эту теорию двух вращающихся частиц. Он говорил, что существует около 400 магнитных эффектов. Около 200 известны людям, а еще 200 остаются загадкой.Только сейчас мы начинаем понимать, благодаря тому, что Говард нам подарил и сказал: “Ребята, можете забирать это”, достал папку из-под кровати и вручил ее нам. Все ответы находятся здесь. Он не собирался никому рассказывать, что эти шлюзы будут делать. Но он оставил нам этот ключ.
Он просто проводил по ночам свои эксперименты с магнитами, все измерял, чтобы изучить все это, потребовалось очень много времени. Говард собирал бестопливный двигатель. Бестопливный! Двигатель, который работает в точности, как электромагнитный двигатель переменного тока. Но не потребляет энергию, ему не нужна энергия, потому что он постоянными магнитами заставляет все эти поля вращаться - это самовращающийся двигатель на основе уникальных переключающихся магнитных сборок.
Релиз: GlobalWave- Качество видео: DVDRip-AVC
Формат видео: MKV
Видео кодек: AVC (x264)
Аудио кодек: MP3
Видео: 720x480 (1.50:1), 23.976 fps, AVC (x264), [email protected], ~707 kbps avg, 0.086 bit/pixel
Аудио: 48 kHz, MPEG Layer 3, 1 ch, ~64.00 kbps avg
Cубтитры: отсутствуют
General
Unique ID : 247181483121102311877575569231288097845
(0xB9F56C0875E74805960BD0F10A865C35)
Format : Matroska
File size : 740 MiB
Duration : 2h 11mn
Overall bit rate : 787 Kbps
Encoded date : UTC 2012-09-20 09:16:43
Writing application : mkvmerge v5.8.0 ('No Sleep / Pillow') built on Sep 2 2012
15:37:04
Writing library : libebml v1.2.3 + libmatroska v1.3.0
Video
ID : 1
Format : AVC
Format/Info : Advanced Video Codec
Format profile : [email protected]
Format settings, CABAC : Yes
Format settings, ReFrames : 3 frames
Muxing mode : Header stripping
Codec ID : V_MPEG4/ISO/AVC
Duration : 2h 11mn
Bit rate : 707 Kbps
Width : 720 pixels
Height : 480 pixels
Display aspect ratio : 16:9
Original display aspect ratio : 3:2
Frame rate : 23.810 fps
Original frame rate : 23.976 fps
Standard : NTSC
Color space : YUV
Chroma subsampling : 4:2:0
Bit depth : 8 bits
Scan type : Progressive
Bits/(Pixel*Frame) : 0.086
Stream size : 665 MiB (90%)
Writing library : x264 core 96 r1613kMod 81e75e9
Encoding settings : cabac=1 / ref=3 / deblock=1:0:0 / analyse=0x3:0x13 / me=umh /
subme=7 / psy=1 / psy_rd=1.00:0.00 / mixed_ref=1 / me_range=16 / chroma_me=1 / trellis=1 / 8x8dct=1
/ cqm=0 / deadzone=21,11 / fast_pskip=1 / chroma_qp_offset=-2 / threads=4 / sliced_threads=1 /
slices=4 / nr=0 / decimate=1 / interlaced=0 / constrained_intra=0 / bframes=0 / weightp=2 /
keyint=250 / keyint_min=25 / scenecut=40 / intra_refresh=0 / rc=cqp / mbtree=0 / qp=20 /
ip_ratio=1.40 / aq=0
Language : Russian
Audio
ID : 2
Format : MPEG Audio
Format version : Version 1
Format profile : Layer 3
Muxing mode : Header stripping
Codec ID : A_MPEG/L3
Codec ID/Hint : MP3
Duration : 2h 11mn
Bit rate mode : Constant
Bit rate : 64.0 Kbps
Channel(s) : 1 channel
Sampling rate : 48.0 KHz
Compression mode : Lossy
Stream size : 60.2 MiB (8%)
Language : Russian
Смотрите также:
Руководство по однополюсным двигателям Бедини (рус.)
Научный сериал «Энергия из вакуума»
д/ф «История магнитного генератора Джона Серла»
д/ф «Потерянные секреты Николы Теслы»
д/ф «Генератор Тесла (Грузинский вариант)»
д/ф «Тяжелый Уотергейт - Война против холодного ядерного синтеза»
д/ф «Кто убил электромобиль»
д/ф «Новая теория атомного ядра - Болотов Борис Васильевич»
д/ф «Начало импульсной энергетики будущего - Канарев Ф.М.»
Download / Скачать

Хотите скачать бесплатно? Зарегистрируйтесь на сайте (ссылка на регистрацию). Pirat.ca - самый быстрый торрент трекер в рунете!

Как скачивать  ·   Что такое торрент  ·   Рейтинг и ограничения



Последний раз редактировалось: globalwave (2012-09-30 12:07), всего редактировалось 1 раз

Maxim54rus

Корсар

40

Пост 30-Сен-2012 13:16 (спустя 1 день 9 часов)

[Q] 

.
[Профиль]  [ЛС] 
Показать сообщения:    
Ответить на тему

Текущее время: Сегодня 04:17

Часовой пояс: GMT + 4



Вы не можете начинать темы
Вы не можете отвечать на сообщения
Вы не можете редактировать свои сообщения
Вы не можете удалять свои сообщения
Вы не можете голосовать в опросах
Вы не можете прикреплять файлы к сообщениям
Вы не можете скачивать файлы

▼ Вниз