ML
     
  Уважаемый Гость!
Вы можете поддержать проект и зарегистрироваться у наших партнеров - онлайн-стратегия MyLands. При регистрации в игре Вы получите код, который сможете активировать после регистрации на pirat.ca и получить 1000 дублонов.

Ваш код:
193c38d0130f05c24de871678ea3ac181461757d
 
     

Долгократия / Debtocracy (Айрис Чатзистефаноу, Катерина Китиди) [2011 г., документальный, WEB-DL] VO

Ответить на тему
 
Автор
Сообщение

Пост 13-Окт-2012 04:12

[Q] 

bible21

Лоцман

-Долгократия / Debtocracy-- Производство: Греция
Жанр: документальный
Год выпуска: 2011 г.
Продолжительность: 01:14:47
Перевод: Профессиональный (одноголосый, закадровый)
Автор(ы) перевода: bible21
Режиссер: Айрис Чатзистефаноу, Катерина Китиди-В ролях: Рон Полл, Рафаэль Корреа, Доминик Стросс-Кан, Джон Перкинс, Сара Вагенкнехт, Костаст Лапавитсас, Манолис Глезос, Эрик Туссен, Самир Амин-Описание: Что такое Греция сегодня? Мы свободная страна? Да. Мы независимы? Нет, мы были превращены в вассалов. Свобода это одно, а суверенитет – совсем другое. Проблема нашей страны – в том, что она потеряла свой суверенитет. В результате сотрудничества с иностранными кредиторами правительство встало в оппозицию к своему народу, приняв жесткие меры экономии. Результатом стала бедность, разрушенный бизнес и безработица.
Мы считаем, что центр Афин стоит перед лицом гуманитарного кризиса. Мы видим все признаки: голодные и бездомные люди, которым не хватает лекарств и медицинской помощи. Люди, которые просто бродят по улицам. Это не сильно отличается от того, что мы видим в странах третьего мира. Правительство не просто ухудшает условия жизни людей. Оно представляет непосредственную угрозу для их существования.
Во всех странах "при поддержке" со стороны МВФ до сих пор наблюдается резкое падение средней продолжительности жизни. Были страны, где, после божьей кары в виде помощи МВФ, средняя продолжительность жизни снизилась на 5-10 лет, что можно сравнить с оккупацией во время войны.
Наше правительство называло нас бездельниками, а наши кредиторы – "СВИНьями", как и в случае со всеми остальными периферийными странами ЕС. И наши министры пытались убедить нас в том, что все мы виноваты в этом. Так являемся ли мы блудными детьми замечательной мировой экономики и успешной-во-всем Европы? Или, может, система была больной с рождения?
Не стесняйтесь отстаивать свои права в ЕС и у греческого правительства. Уважение достигается через борьбу, а не через повиновение своим кредиторам. Только тогда, когда люди действуют, ситуация реально меняется. Мы должны стряхнуть с себя покорность, освободиться от МВФ, освободиться от ЕЦБ, освободиться от евросоюза, и освободить себя от кредиторов, потому что все они эквивалентны экономическому порабощению Греции.
Есть только один-единственный выбор в грядущих десятилетиях – не оплачивать этот долг, потому, что он был основан на неолиберализме. И неолиберальная стратегия была преступлением против человечества. Никто не обязан платить этот долг, поскольку он возник из-за порочной идеологии финансовой системы. Это безнравственно – оплачивать неправедный долг.
Релиз: Bible21-
Качество видео: WEB-DL
Формат видео: AVI
Видео кодек: DivX
Аудио кодек: MP3
Видео: 720x480 (3:2), 29.970 fps, DivX Codec 5, ~635 kbps avg, 0.061 bit/pixel
Аудио: 48 kHz, MPEG Layer 3, 2 ch, ~128.00 kbps avg
Cубтитры: отсутствуют
General
Формат : AVI
Формат/Информация : Audio Video Interleave
Размер файла : 414 MiB
Продолжительность : 1h 14mn
Общий поток : 775 Kbps
Библиотека кодирования : VirtualDub build 32507/release
Video
Идентификатор : 0
Формат : MPEG-4 Visual
Параметр BVOP формата : 3
Параметр QPel формата : No
Параметр GMC формата : No warppoints
Параметр матрицы формата : Default (H.263)
Режим смешивания : Packed bitstream
Идентификатор кодека : DX50
Идентификатор кодека/Подсказка : DivX 5
Продолжительность : 1h 14mn
Битрейт : 635 Kbps
Ширина : 720 pixels
Высота : 480 pixels
Соотношение сторон : 3:2
Частота кадров : 29.970 fps
Стандарт вещания : NTSC
Цветовое пространство : YUV
Субдискретизация насыщенности : 4:2:0
Битовая глубина : 8 bits
Тип развёртки : Progressive
Метод сжатия : Lossy
Бит/(Пиксели*Кадры) : 0.061
Размер потока : 340 MiB (82%)
Библиотека кодирования : DivX 6.8.5 (UTC 2009-08-20)
Audio
Идентификатор : 1
Формат : MPEG Audio
Версия формата : Version 1
Профиль формата : Layer 3
Режим : Joint stereo
Расширение режима : MS Stereo
Идентификатор кодека : 55
Идентификатор кодека/Подсказка : MP3
Продолжительность : 1h 14mn
Вид битрейта : Constant
Битрейт : 128 Kbps
Каналы : 2 channels
Частота : 48.0 KHz
Метод сжатия : Lossy
Размер потока : 68.5 MiB (17%)
Выравнивание : Split accross interleaves
Продолжительность промежутка : 33 ms (1.00 video frame)
Время предзагрузки промежутка : 500 ms
Download / Скачать

Хотите скачать бесплатно? Зарегистрируйтесь на сайте (ссылка на регистрацию). Pirat.ca - самый быстрый торрент трекер в рунете!

Как скачивать  ·   Что такое торрент  ·   Рейтинг и ограничения

Показать сообщения:    
Ответить на тему

Текущее время: Сегодня 18:04

Часовой пояс: GMT + 4



Вы не можете начинать темы
Вы не можете отвечать на сообщения
Вы не можете редактировать свои сообщения
Вы не можете удалять свои сообщения
Вы не можете голосовать в опросах
Вы не можете прикреплять файлы к сообщениям
Вы не можете скачивать файлы

▼ Вниз