ML
     
  Уважаемый Гость!
Вы можете поддержать проект и зарегистрироваться у наших партнеров - онлайн-стратегия MyLands. При регистрации в игре Вы получите код, который сможете активировать после регистрации на pirat.ca и получить 1000 дублонов.

Ваш код:
193c38d0130f05c24de871678ea3ac181461757d
 
     

Индийские йоги среди нас и мы среди них (Евгений Жижикин) [2011 г., Документальный, SATRip]

Ответить на тему
 
Автор
Сообщение

Пост 13-Дек-2011 06:57

[Q] 

Степаныч

Индийские йоги среди нас и мы среди них
Год выпуска: 2011
Производство: Россия
Жанр: Документальный
Продолжительность: 00:50:42
Режиссер: Евгений Жижикин
Описание: Вы хотите увидеть чудо? Тогда отправляйтесь вместе с героями фильма в Индию, на самый грандиозный религиозный фестиваль десятилетия – Махакумбхамелу - Ярмарку Чудес.
50 миллионов человек соберутся на берегу священной для индусов реки Ганг, чтобы своими глазами увидеть нечто шокирующее и необъяснимое…
Для Эдуарда Сагалаева, президента Национальной ассоциации телерадиовещателей, фестиваль – это событие мирового масштаба и вселенской значимости. Много лет назад он впервые побывал на этом религиозном празднике и пережил непостижимый мистический опыт, всерьез заинтересовался духовными практиками и даже снял цикл фильмов на эту тему. Он выступит в нашем фильме проводником, объясняющим все непонятное и спорное.
Вместе с Эдуардом Сагалаевым в это путешествие отправился Денис. Он журналист. И скептик. Для него фестиваль на берегу Ганга всего лишь "рабочее задание".
Он должен сделать репортаж о происходящем, но уже изначально настроен недоверчиво по отношению к предстоящему событию. Он не готов принимать на веру все те чудеса, которые ему предстоит увидеть. Для него Махакумбхамела – всего лишь хорошо срежиссированное шоу. Денис увидит действительно сенсационные явления и порой ему сложно будет найти рациональные объяснения им.
Многие чудеса на фестивале для простого путешественника необъяснимы, а для паломников все они - результат духовной работы просветленных людей, на встречу с которыми они спешили со всех уголков мира. В самолете "Москва-Дели" встретились люди разных профессий, достатка, статуса. Но всех их объединяет одно – жажда чуда. Но не только.
Александр Шалыгин, 35 лет. Успешный бизнесмен из Москвы. Летит в Индию впервые, но много читал про этот праздник и мечтал на него попасть. Так как Махакумбхамела проходит всего раз в 12 лет – ждать осуществления мечты пришлось долго. С ним едет его супруга Вика, студентка мединститута. Для нее это путешествие - еще и уникальный опыт познания способностей человеческого организма. Разного рода экстрима в этой поездке их ждет немало.
Любовь Козлова, 54 года. Учитель математики. Глубоко верующая. Перед поездкой спрашивала благословения у православного священника. Надеется встретить уникальных людей и обогатить свой духовный мир.
Сергей Ефимов, 47 лет, психотерапевт из Екатеринбурга. Ему фестиваль интересен с профессиональной точки зрения. Такое скопление людей, верящих в чудо, не может не принести новых и наверняка необычных знаний. Он ищет встреч с интересными людьми, обладающими необычным мышлением и восприятием мира. На этом фестивале таких встреч будет множество.
Этот фильм будет интересен широкому кругу зрителей: герои фильма увидят чудеса, сотворенные силой человеческого духа, познакомятся с мистической Индией. Отправятся в уникальное путешествие в Гималаи к истокам Ганга, куда решаются подняться только самые сильные духом паломники. И, наконец, совершат королевское омовение в числе 50 миллионов паломников. Впервые в этом шествии к месту королевского омовения вместе с индийскими святыми приняла участие съемочная группа Первого канала.
Места съемок: Дели, Харидвар (место проведения фестиваля, один из 12 священных городов Индии), а также Ришикеш (город в горах Гималаев, где расположен монастырь индийских мудрецов).
Источник/Качество: SATRip
Формат: AVI
Видео кодек: XviD
Аудио кодек: MP3
Видео: MPEG4, XviD, 704x400 (16/9), 25.000 fps, 1 500 Kbps (0.213 bit/pixel)
Аудио: MP3, 48.0 KHz, 2 ch, 128 Kbps, CBR
Формат : AVI
Формат/Информация : Audio Video Interleave
Размер файла : 595 Мбайт
Продолжительность : 50 м.
Общий поток : 1641 Кбит/сек
Библиотека кодирования : TMPGEnc 4.0 XPress Version. 4.7.6.304
Видео
Идентификатор : 0
Формат : MPEG-4 Visual
Профиль формата : [email protected]
Параметр BVOP формата : Нет
Параметр QPel формата : Нет
Параметр GMC формата : Без точки перехода
Параметр матрицы формата : Default (H.263)
Идентификатор кодека : XVID
Идентификатор кодека/Подсказка : XviD
Продолжительность : 50 м.
Битрейт : 1500 Кбит/сек
Ширина : 704 пикс.
Высота : 400 пикс.
Соотношение сторон : 16:9
Частота кадров : 25,000 кадр/сек
Цветовое пространство : YUV
Подвыборка цветности : 4:2:0
Битовая глубина : 8 бит
Тип развёртки : Прогрессивная
Метод сжатия : С потерями
Бит/(Пиксели*Кадры) : 0.213
Размер потока : 544 Мбайт (91%)
Библиотека кодирования : Lavc52.83.0
Аудио
Идентификатор : 1
Формат : MPEG Audio
Версия формата : Version 1
Профиль формата : Layer 3
Режим : Joint stereo
Идентификатор кодека : 55
Идентификатор кодека/Подсказка : MP3
Продолжительность : 50 м.
Вид битрейта : Постоянный
Битрейт : 128 Кбит/сек
Канал(ы) : 2 канала(ов)
Частота : 48,0 КГц
Метод сжатия : С потерями
Размер потока : 46,4 Мбайт (8%)
Выравнивание : Соединение по промежуткам
Продолжительность промежутка : 40 мс. (1,00 видеокадр)
Время предзагрузки промежутка : 384 ms



Download / Скачать

Хотите скачать бесплатно? Зарегистрируйтесь на сайте (ссылка на регистрацию). Pirat.ca - самый быстрый торрент трекер в рунете!

Как скачивать  ·   Что такое торрент  ·   Рейтинг и ограничения

King George

Морской Волк

170

Пост 24-Апр-2012 15:23 (спустя 4 месяца 11 дней)

[Q] 

Степаныч
Большое Спасибо!
Теперь неплохо было бы скачать. :)

_________________
Мы так привыкли притворяться перед другими, что под конец начинаем притворяться перед собой.
© Ф. Ларошфуко
[Профиль]  [ЛС] 
Показать сообщения:    
Ответить на тему

Текущее время: Сегодня 18:03

Часовой пояс: GMT + 4



Вы не можете начинать темы
Вы не можете отвечать на сообщения
Вы не можете редактировать свои сообщения
Вы не можете удалять свои сообщения
Вы не можете голосовать в опросах
Вы не можете прикреплять файлы к сообщениям
Вы не можете скачивать файлы

▼ Вниз