ML
     
  Уважаемый Гость!
Вы можете поддержать проект и зарегистрироваться у наших партнеров - онлайн-стратегия MyLands. При регистрации в игре Вы получите код, который сможете активировать после регистрации на pirat.ca и получить 1000 дублонов.

Ваш код:
ca44e9295b9b8527ba1c339c20494f70782efea6
 
     

Кронштадтский мятеж. Кто победил? (Алексей Денисов) [2011 г., Документальный, SATRip]

Ответить на тему
 
Автор
Сообщение

Пост 13-Дек-2011 17:40

[Q] 

Степаныч

Кронштадтский мятеж. Кто победил?
Год выпуска: 2011
Производство: Россия
Жанр: Документальный
Продолжительность: 00:44:01
Режиссер: Алексей Денисов
Описание: В начале марта 1921 года в советских газетах было опубликовано срочное сообщение. В нем говорилось, что бывший царский генерал Козловский поднял в Кронштадте белогвардейский мятеж. В дальнейшем информация о мятеже подавалась крайне скупо. Сообщалось, что в Кронштадте якобы расстреляно 150 большевиков.
8 марта 1921 года в Москве открылся Х съезд партии. Выступая перед его делегатами, Ленин неожиданно заявил, что восстание в Кронштадте "опаснее для большевиков, чем Деникин, Юденич и Колчак вместе взятые".
На подавление мятежа отправились 390 делегатов и гостей съезда. В Москве, Петрограде и других городах были мобилизованы около трех тысяч коммунистов, которых также бросили под Кронштадт…
Источник/Качество: SATRip
Формат: AVI
Видео кодек: XviD
Аудио кодек: MP3
Видео: MPEG4, XviD, 720x544 (4/3), 25.000 fps, 1 453 Kbps (0.148 bit/pixel)
Аудио: MP3, 48.0 KHz, 2 ch, 128 Kbps, CBR (Undefined)
Формат : AVI
Формат/Информация : Audio Video Interleave
Размер файла : 501 Мбайт
Продолжительность : 44 м.
Общий поток : 1591 Кбит/сек
Название фильма : Кронштадтский мятеж - Кто победил_bySat
Режиссёр : Scorpman
Программа кодирования : VirtualDubMod 1.5.10.3 | www.virtualdub-fr.org || (build 2550/release) VirtualDubMod build 2550/release
Правообладатель : Sat
Видео
Идентификатор : 0
Формат : MPEG-4 Visual
Профиль формата : Advanced [email protected]
Параметр BVOP формата : 1
Параметр QPel формата : Нет
Параметр GMC формата : Без точки перехода
Параметр матрицы формата : Default (H.263)
Идентификатор кодека : XVID
Идентификатор кодека/Подсказка : XviD
Продолжительность : 44 м.
Битрейт : 1453 Кбит/сек
Ширина : 720 пикс.
Высота : 544 пикс.
Соотношение сторон : 4:3
Частота кадров : 25,000 кадр/сек
Цветовое пространство : YUV
Подвыборка цветности : 4:2:0
Битовая глубина : 8 бит
Тип развёртки : Прогрессивная
Метод сжатия : С потерями
Бит/(Пиксели*Кадры) : 0.148
Размер потока : 458 Мбайт (91%)
Библиотека кодирования : XviD 61
Аудио
Идентификатор : 1
Формат : MPEG Audio
Версия формата : Version 1
Профиль формата : Layer 3
Идентификатор кодека : 55
Идентификатор кодека/Подсказка : MP3
Продолжительность : 44 м.
Вид битрейта : Постоянный
Битрейт : 128 Кбит/сек
Канал(ы) : 2 канала(ов)
Частота : 48,0 КГц
Метод сжатия : С потерями
Размер потока : 40,3 Мбайт (8%)
Выравнивание : Соединение по промежуткам
Продолжительность промежутка : 40 мс. (1,00 видеокадр)
Время предзагрузки промежутка : 504 ms
Библиотека кодирования : LAME3.98r
Настройки программы : -m s -V 4 -q 2 -lowpass 17 -b 128
Язык : un




Download / Скачать

Хотите скачать бесплатно? Зарегистрируйтесь на сайте (ссылка на регистрацию). Pirat.ca - самый быстрый торрент трекер в рунете!

Как скачивать  ·   Что такое торрент  ·   Рейтинг и ограничения

alekso73

1082

Пост 27-Дек-2011 10:18 (спустя 13 дней)

[Q] 

Спасибо за правдивый фильм!
[Профиль]  [ЛС] 

stiv007

Лоцман

Пост 19-Апр-2013 18:02 (спустя 1 год 3 месяца)

[Q] 

Из обращения жителей Кронштадта:
" ВСЯ ВЛАСТЬ СОВЕТАМ, А НЕ ПАРТИЯМ
Совершая Октябрьскую революцию рабочий класс надеялся достичь своего раскрепощения. В результате же создалось ещё большее порабощение личности человека.
Власть полицейско-жандармского монархизма перешла в руки захватчиков-коммунистов, которые трудящимся вместо свободы преподнесли ежеминутный страх попасть в застенок чрезвычайки, во много раз своими ужасами превзошедшей жандармское управление.
Штык, пуля и грубый окрик опричников из чека - вот что после многочисленной борьбы и страданий приобрёл труженик Советской России. Славный герб трудового государства - серп и молот - коммунистическая власть на деле подменила штыком и решёткой ради сохранения спокойной и беспечной жизни новой бюрократии, коммунистических комиссаров и чиновников. Рабочих при помощи казённых профессиональных союзов прикрепили к станку, сделав труд не радостью, а новым рабством. Теперь стало очевидным, что коммунистическая партия не является защитницей трудящихся каковой она сама себя выставляла. Добравшись до власти она боится лишь потерять её, а потому дозволены все средства: клевета, насилие, обман, убийства. Сама жизнь под игом диктатуры коммунистов стала страшнее смерти. Здесь, в Кронштадте, положен первый камень третьей революции открывающий широкий путь для социалистического творчества....."

Фильм о том, как уничтожили этих людей.
[Профиль]  [ЛС] 
Показать сообщения:    
Ответить на тему

Текущее время: Сегодня 16:10

Часовой пояс: GMT + 4



Вы не можете начинать темы
Вы не можете отвечать на сообщения
Вы не можете редактировать свои сообщения
Вы не можете удалять свои сообщения
Вы не можете голосовать в опросах
Вы не можете прикреплять файлы к сообщениям
Вы не можете скачивать файлы

▼ Вниз