ML
     
  Уважаемый Гость!
Вы можете поддержать проект и зарегистрироваться у наших партнеров - онлайн-стратегия MyLands. При регистрации в игре Вы получите код, который сможете активировать после регистрации на pirat.ca и получить 1000 дублонов.

Ваш код:
fe4e93b754a7c2b306fcfc8bc32532ea1cf59d3b
 
     

Пропаганда / Propaganda (Аноним) [2012 г., документальный, TVRip] AVO

Ответить на тему
 
Автор
Сообщение

Пост 28-Окт-2012 19:36

[Q] 

nettroop

Лоцман

-Пропаганда / Propaganda-- Производство: КНДР (Северная Корея)
Жанр: документальный
Год выпуска: 2012 г.
Продолжительность: 01:35:15
Перевод: Авторский (одноголосый, закадровый)
Режиссер: Аноним-Описание: Многие люди не задумываются об истинной роли присутствующих в жизни каждого из нас страхе и религии, псевдоистории и телевидения, идей и иллюзий, рекламы и культа "знаменитостей", видео игр и терроризма. Об этих и многих других аспектах изощрённо навязываемой и пропитывающей всё наше существование пропаганды - в северокорейской документальной ленте.
Это фильм о психологической войне, особого вида войне, цель которой отвлечь, дезинформировать и притупить мозг. У этой войны много масок, и она направлена против каждого из нас.-
Качество видео: TVRip
Формат видео: AVI
Видео кодек: DivX
Аудио кодек: M4B
Видео: Duration : 1h 35mn, Bit rate : 1 494 Kbps, Width : 720 pixels, Height : 400 pixelsDisplay aspect ratio : 16:9, Frame rate : 25.000 fps,Color space : YUV
Аудио: mp3 44100Hz stereo 195kbps [Stream 02] (русский поверх оригинальной корейской дорожки)
Аудио #2: mp3 44100Hz stereo 160kbps [Stream 03] (русский поверх английской дорожки)
Аудио #3: mp3 44100Hz stereo 128kbps [Stream 04] (английский поверх оригинальной корейской дорожки)
Cубтитры: отсутствуют
General
Complete name : PROPAGANDA[2012]DPRK,rus,eng.avi
Format : AVI
Format/Info : Audio Video Interleave
File size : 1.30 GiB
Duration : 1h 35mn
Overall bit rate : 1 961 Kbps
Writing application : VirtualDubMod 1.5.10.2 (build 2542/release)
Writing library : VirtualDubMod build 2542/release
TCOD : 0
TCDO : 57152400000
Video
ID : 0
Format : MPEG-4 Visual
Format settings, BVOP : Yes
Format settings, QPel : No
Format settings, GMC : No warppoints
Format settings, Matrix : Default (H.263)
Codec ID : DX50
Codec ID/Hint : DivX 5
Duration : 1h 35mn
Bit rate : 1 494 Kbps
Width : 720 pixels
Height : 400 pixels
Display aspect ratio : 16:9
Frame rate : 25.000 fps
Color space : YUV
Chroma subsampling : 4:2:0
Bit depth : 8 bits
Scan type : Progressive
Bits/(Pixel*Frame) : 0.208
Stream size : 1 018 MiB (76%)
Writing library : DivX 6.8.5 (UTC 2009-08-20)
Audio #1
ID : 1
Format : MPEG Audio
Format version : Version 1
Format profile : Layer 3
Codec ID : 55
Codec ID/Hint : MP3
Duration : 1h 35mn
Bit rate mode : Constant
Bit rate : 192 Kbps
Channel(s) : 2 channels
Sampling rate : 44.1 KHz
Stream size : 131 MiB (10%)
Alignment : Split accross interleaves
Interleave, duration : 40 ms (1.00 video frame)
Interleave, preload duration : 500 ms
Audio #2
ID : 2
Format : MPEG Audio
Format version : Version 1
Format profile : Layer 3
Codec ID : 55
Codec ID/Hint : MP3
Duration : 1h 35mn
Bit rate mode : Constant
Bit rate : 160 Kbps
Channel(s) : 2 channels
Sampling rate : 44.1 KHz
Stream size : 87.2 MiB (7%)
Alignment : Split accross interleaves
Interleave, duration : 40 ms (1.00 video frame)
Interleave, preload duration : 500 ms
Audio #3
ID : 3
Format : MPEG Audio
Format version : Version 1
Format profile : Layer 3
Codec ID : 55
Codec ID/Hint : MP3
Duration : 1h 35mn
Bit rate mode : Constant
Bit rate : 128 Kbps
Channel(s) : 2 channels
Sampling rate : 44.1 KHz
Stream size : 87.2 MiB (7%)
Alignment : Split accross interleaves
Interleave, duration : 40 ms (1.00 video frame)
Interleave, preload duration : 500 ms
Этот фильм впервые появился на youtube.
Sabine, которая выложила фильм на youtube, заявила что получила этот фильм от северо-корейских диссидентов в Сеуле, с просьбой перевести этот фильм на английский и чтобы мир о нём узнал.
Будучи переводчиком с корейского, она перевела этот фильм и выложила на youtube, так как никто из СМИ не хотел его брать.
Download / Скачать

Хотите скачать бесплатно? Зарегистрируйтесь на сайте (ссылка на регистрацию). Pirat.ca - самый быстрый торрент трекер в рунете!

Как скачивать  ·   Что такое торрент  ·   Рейтинг и ограничения



Последний раз редактировалось: nettroop (2012-10-29 12:24), всего редактировалось 1 раз

Dexter Morgan

Шкипер

Пост 28-Окт-2012 23:50 (спустя 4 часа)

[Q] 

Я надеюсь этот фильм не в стиле Рен ТВ. . . Автору спасибо
[Профиль]  [ЛС] 

nettroop ®

Лоцман

5

Пост 29-Окт-2012 00:28 (спустя 38 минут)

[Q] 

По скольку я телевизор не смотрю, то однозначно ответить не могу, но не думаю что в стиле рен-тв. Но фильм мне понравился и решил поделиться им.
[Профиль]  [ЛС] 

AnastasWolf

3475

Пост 28-Май-2014 04:22 (спустя 1 год 6 месяцев)

[Q] 

Надо посмотреть, как корейцы эту тему освещают.

_________________
[Профиль]  [ЛС] 

AnastasWolf

3475

Пост 02-Июн-2014 18:29 (спустя 5 дней)

[Q] 

Если бы на бочки можно было покупать статус, то этой раздаче я бы купила вечное золото!
Автору респект!!! и Спасибо!!!
, но с описанием наша пропаганда не подкачала. >;}

_________________
[Профиль]  [ЛС] 
Показать сообщения:    
Ответить на тему

Текущее время: Сегодня 14:25

Часовой пояс: GMT + 4



Вы не можете начинать темы
Вы не можете отвечать на сообщения
Вы не можете редактировать свои сообщения
Вы не можете удалять свои сообщения
Вы не можете голосовать в опросах
Вы не можете прикреплять файлы к сообщениям
Вы не можете скачивать файлы

▼ Вниз