ML
     
  Уважаемый Гость!
Вы можете поддержать проект и зарегистрироваться у наших партнеров - онлайн-стратегия MyLands. При регистрации в игре Вы получите код, который сможете активировать после регистрации на pirat.ca и получить 1000 дублонов.

Ваш код:
fcd618d94adc1456bccbde5047c9cd0930e4ae4d
 
     

ОККУПАЦИЯ 101 / OCCUPATION 101 (С. Омеиш, А. Омеиш / S.Omeish, A.Omeish) [2006 г., документальный, DVDRip] VO [Sub Rus]

Ответить на тему
 
Автор
Сообщение

Пост 06-Дек-2012 13:08

[Q] 

Соломон Израэлич

Морской Волк

-ОККУПАЦИЯ 101 / OCCUPATION 101-- Производство: США
Жанр: документальный
Год выпуска: 2006 г.
Продолжительность: 01:30:00
Перевод: Профессиональный (одноголосый, закадровый)
Автор(ы) перевода: Эндшпиль
Режиссер: С. Омеиш, А. Омеиш / S.Omeish, A.Omeish-В ролях: Израильская военщина и угнетаемый ими палестинский народ.-Описание: Документальная лента-победительница семи кинофестивалей "Оккупация 101" рассказывает о фактах, старательно умалчиваемых мировыми средствами массовой информации касательно израильско-палестинского конфликта и образования одного государства за счёт уничтожения другого. "Оккупация 101" обличает тиражируемые в СМИ ложь и мифы о положении в регионе. Фильм демонстрирует, что ни евреи и ни палестинцы как отдельно взятые народы не являются виновниками почти векового противостояния. Причина всего произошедшего и происходящего на землях Палестины - движение-прародитель фашизма - Сионизм.-Качество видео: DVDRip
Формат видео: MKV
Видео кодек: H.264
Аудио кодек: AC3
Видео:[email protected]*576, 1700 kbps, 29.97 fps
Аудио: 192 kbps, 2 ch, 48 kHz
Cубтитры: русские
Формат субтитров: softsub (SRT)
Люди забывают и не знают о существовании сионизма, в их мозг поступает информация лишь о, так званой, «заразе» под именем фашизм… Уже прошло 65 лет после того, как данное политическое движение было побеждено. А про-еврейские СМИ всё нам талдычат об их преступлениях, прикрывая свои неправомерные действия на территории Палестины. Возможно фильм и не правдив на сто процентов, но то что я в нём увидел — на телевидении и общенациональных СМИ мне слышать не доводилось, поэтому тут лишь два мнения: либо нас обманывают СМИ, либо этот фильм — пропаганда политики Израиля. Конечно, как думающий человек — в правдивости информации от СМИ очень сомневаюсь.
Война — страшная вещь, а если учесть, что из двух таборов — лишь один совершает военные действия, придушивая ни то что сопротивления, а и попытки мирных жителей защитить свои дома — то становится вообще кошмарно. А ведь всё завуалированно под «мирные действия». Я же это называю — зачисткой. Ещё чуть-чуть и коренного населения на родных территориях не останется. Печально…
Общее
Уникальный идентификатор : 209797429170220281580565562569623019168 (0x9DD583DE36513FC7AE2C35C964D31EA0)
Полное имя : D:\µTorrent\Occupation_101_[Pirat.ca].mkv
Формат : Matroska
Версия формата : Version 2
Размер файла : 1,29 Гбайт
Продолжительность : 1 ч. 30 м.
Общий поток : 2049 Кбит/сек
Дата кодирования : UTC 2009-10-27 20:31:11
Программа кодирования : mkvmerge v2.9.5 ('Tu es le seul') built on Jun 7 2009 11:07:07
Библиотека кодирования : libebml v0.7.7 + libmatroska v0.8.1
Видео
Идентификатор : 1
Формат : AVC
Формат/Информация : Advanced Video Codec
Профиль формата : [email protected]
Параметр CABAC формата : Да
Параметр ReFrames формата : 2 кадра
Параметр GOP формата : M=3, N=24
Идентификатор кодека : V_MPEG4/ISO/AVC
Продолжительность : 1 ч. 30 м.
Вид битрейта : Постоянный
Битрейт : 1700 Кбит/сек
Ширина : 720 пикселей
Высота : 576 пикселей
Соотношение сторон : 1,85:1
Режим частоты кадров : Постоянный
Частота кадров : 29,970 кадров/сек
Стандарт вещания : NTSC
Цветовое пространство : YUV
Субдискретизация насыщенности : 4:2:0
Битовая глубина : 8 бит
Тип развёртки : Прогрессивная
Бит/(Пиксели*Кадры) : 0.137
Размер потока : 1,04 Гбайт (81%)
Язык : English
Default : Да
Forced : Нет
Аудио #1
Идентификатор : 2
Формат : AC-3
Формат/Информация : Audio Coding 3
Расширение режима : CM (complete main)
Параметр Endianness формата : Big
Идентификатор кодека : A_AC3
Продолжительность : 1 ч. 30 м.
Вид битрейта : Постоянный
Битрейт : 192 Кбит/сек
Каналы : 2 канала
Расположение каналов : Front: L R
Частота : 48,0 КГц
Битовая глубина : 16 бит
Метод сжатия : С потерями
Размер потока : 124 Мбайт (9%)
Заголовок : русская озвучка Эндшпиль @192kbps AC3
Язык : Russian
Default : Да
Forced : Да
Аудио #2
Идентификатор : 3
Формат : AC-3
Формат/Информация : Audio Coding 3
Расширение режима : CM (complete main)
Параметр Endianness формата : Big
Идентификатор кодека : A_AC3
Продолжительность : 1 ч. 30 м.
Вид битрейта : Постоянный
Битрейт : 160 Кбит/сек
Каналы : 2 канала
Расположение каналов : Front: L R
Частота : 48,0 КГц
Битовая глубина : 16 бит
Метод сжатия : С потерями
Размер потока : 103 Мбайт (8%)
Заголовок : английская дорожка @160kbps AC3
Язык : English
Default : Нет
Forced : Нет
Текст #1
Идентификатор : 4
Формат : UTF-8
Идентификатор кодека : S_TEXT/UTF8
Идентификатор кодека/Информация : UTF-8 Plain Text
Заголовок : русские субтитры Эндшпиль
Язык : Russian
Default : Нет
Forced : Нет
Текст #2
Идентификатор : 5
Формат : UTF-8
Идентификатор кодека : S_TEXT/UTF8
Идентификатор кодека/Информация : UTF-8 Plain Text
Заголовок : английские субтитры
Язык : English
Default : Нет
Forced : Нет
Download / Скачать

Хотите скачать бесплатно? Зарегистрируйтесь на сайте (ссылка на регистрацию). Pirat.ca - самый быстрый торрент трекер в рунете!

Как скачивать  ·   Что такое торрент  ·   Рейтинг и ограничения



Последний раз редактировалось: Соломон Израэлич (2012-12-07 13:27), всего редактировалось 2 раз(а)

Соломон Израэлич ®

Морской Волк

28

Пост 06-Дек-2012 13:15 (спустя 6 минут)

[Q] 

Осторожно, фильм насыщен кадрами растерзанных палестинцев ... Немецкие СС тихие мальчики по сравнению с изуверами ЦАХАЛА...
[Профиль]  [ЛС] 

Соломон Израэлич ®

Морской Волк

28

Пост 06-Дек-2012 13:22 (спустя 7 минут)

[Q] 

Этот фильм дополняет передачи Доктора Дэвида Дьюка
[Профиль]  [ЛС] 

Ivanmok

Шкипер

23

Пост 06-Дек-2012 15:47 (спустя 2 часа 25 минут)

[Q] 

Спасибо за фильм. Может и про Россию, что снимут, а то эти евреи и у нас все захватили!
[Профиль]  [ЛС] 

Соломон Израэлич ®

Морской Волк

28

Пост 06-Дек-2012 16:57 (спустя 1 час 9 минут)

[Q] 

Ivanmok,
Уже сняли. Вернее снял американец Дэвид Дюк: ЗЕМНОЙ РАЙ ДЛЯ ОРГПРЕСТУПНОСТИ
[Профиль]  [ЛС] 

Luzhok

Легенда

Пост 06-Дек-2012 23:33 (спустя 6 часов)

[Q] 

Соломон Израэлич
подключился
по возможности помогу с раздачей
за релиз спасибо
[Профиль]  [ЛС] 

Честер

Морской Волк

78

Пост 07-Дек-2012 00:44 (спустя 1 час 10 минут)

[Q] 

Соломон Израэлич, ты прям великий разоблачитель. Не удивлюсь, что и финансируют тебя из пентагона.
[Профиль]  [ЛС] 

Соломон Израэлич ®

Морской Волк

28

Пост 07-Дек-2012 00:47 (спустя 3 минуты)

[Q] 

278517Соломон Израэлич
по возможности помогу с раздачей
Спасибо! Это очень важно.
[Профиль]  [ЛС] 

Соломон Израэлич ®

Морской Волк

28

Пост 07-Дек-2012 00:52 (спустя 4 минуты)

[Q] 

278550Соломон Израэлич,
... финансируют тебя из пентагона.
Не поверишь - миллионы платят только, чтобы я специально на пиратке занимался изобличительством :)
[Профиль]  [ЛС] 

Соломон Израэлич ®

Морской Волк

28

Пост 08-Дек-2012 23:56 (спустя 1 день 23 часа)

[Q] 

UcrusPazzo,
Выложил контент ... согласно правил ... Что Вы ещё от меня хотите? Пожалуйста, объяснитесь ...
[Профиль]  [ЛС] 

UcrusPazzo

7670

Пост 09-Дек-2012 01:01 (спустя 1 час 4 минуты)

[Q] 

Скачал видео, выяснил в чем дело! Это анаморфное видео, поэтому так получается.

_________________
[Профиль]  [ЛС] 

Амангельды

35499

Пост 15-Фев-2013 21:33 (спустя 2 месяца 6 дней)

[Q] 

278550Соломон Израэлич, ты прям великий разоблачитель. Не удивлюсь, что и финансируют тебя из пентагона.
Он честно платит налоги, делится с братвой и подогревает бродяг, что в хате...

_________________

Товарищ, верь, пройдет она,
Так называемая гласность.
И вот тогда госбезопасность
Припомнит ваши имена
Раздачи от Амангельды - ТЫНЦ
[Профиль]  [ЛС] 
Показать сообщения:    
Ответить на тему

Текущее время: Сегодня 12:48

Часовой пояс: GMT + 4



Вы не можете начинать темы
Вы не можете отвечать на сообщения
Вы не можете редактировать свои сообщения
Вы не можете удалять свои сообщения
Вы не можете голосовать в опросах
Вы не можете прикреплять файлы к сообщениям
Вы не можете скачивать файлы

▼ Вниз