ML
     
  Уважаемый Гость!
Вы можете поддержать проект и зарегистрироваться у наших партнеров - онлайн-стратегия MyLands. При регистрации в игре Вы получите код, который сможете активировать после регистрации на pirat.ca и получить 1000 дублонов.

Ваш код:
5af7de75d3db09b6a37bc8bab71b0e87ccde73d6
 
     

Новогоднее обращение Президента России В.В.Путина [2013 г., SATRip]

Ответить на тему
 
Автор
Сообщение

Пост 31-Дек-2012 18:59

[Q] 

Jigsaw

 
-Новогоднее обращение Президента России В.В.Путина-- Производство: Россия / НТВ
Год выпуска: 2013 г.
Продолжительность: 00:07:31
В ролях: Президент России В.В.Путин.-Описание: Новогоднее обращение президента России В.В.Путина-СэмплКачество видео: SATRip
Формат видео: AVI
Видео кодек: XviD
Аудио кодек: MP3
Видео: MPEG4, XviD, 704x520 (4:3), 25.000 fps, 1 189 Kbps (0.130 bit/pixel)
Аудио: Rus: MP3, 44.1 KHz, 2 ch, 192 Kbps, CBR
Cубтитры: отсутствуют
Общее
Полное имя : D:\Новогоднее обращение президента России В.В.Путина.2013.SATRip.avi
Формат : AVI
Формат/Информация : Audio Video Interleave
Размер файла : 74,9 Мбайт
Продолжительность : 7 м. 31 с.
Общий поток : 1391 Кбит/сек
Видео
Идентификатор : 0
Формат : MPEG-4 Visual
Профиль формата : Advanced [email protected]
Параметр BVOP формата : 2
Параметр QPel формата : Нет
Параметр GMC формата : Без точки перехода
Параметр матрицы формата : Выборочная
Идентификатор кодека : XVID
Идентификатор кодека/Подсказка : XviD
Продолжительность : 7 м. 31 с.
Битрейт : 1189 Кбит/сек
Ширина : 704 пикселя
Высота : 520 пикселей
Соотношение сторон : 4:3
Частота кадров : 25,000 кадров/сек
Цветовое пространство : YUV
Субдискретизация насыщенности : 4:2:0
Битовая глубина : 8 бит
Тип развёртки : Прогрессивная
Метод сжатия : С потерями
Бит/(Пиксели*Кадры) : 0.130
Размер потока : 64,0 Мбайт (85%)
Библиотека кодирования : XviD 1.2.1 (UTC 2008-12-04)
Аудио
Идентификатор : 1
Формат : MPEG Audio
Версия формата : Version 1
Профиль формата : Layer 3
Режим : Joint stereo
Расширение режима : MS Stereo
Идентификатор кодека : 55
Идентификатор кодека/Подсказка : MP3
Продолжительность : 7 м. 31 с.
Продолжительность оригинала : 7 м. 31 с.
Вид битрейта : Постоянный
Битрейт : 192 Кбит/сек
Каналы : 2 канала
Частота : 44,1 КГц
Метод сжатия : С потерями
Размер потока : 10,3 Мбайт (14%)
Выравнивание : Соединение по промежуткам
Продолжительность промежутка : 40 мс. (1,00 видеокадр)
Download / Скачать

Хотите скачать бесплатно? Зарегистрируйтесь на сайте (ссылка на регистрацию). Pirat.ca - самый быстрый торрент трекер в рунете!

Как скачивать  ·   Что такое торрент  ·   Рейтинг и ограничения

Пост 31-Дек-2012 19:05 (спустя 6 минут)

Топик был перенесен из форума Наше кино (Трюм) в форум Документальные фильмы и передачи (Трюм)

ara1205
 

Spieler95

Морской Волк

168

Пост 31-Дек-2012 19:05 (спустя 6 минут)

[Q] 

Всех с наступающим Новым Годом))Через 5 часов мы услышим В.В.П.Всем удачи в новом,2013 году))

_________________
[Профиль]  [ЛС] 

Znoi

Флибустьер

1163

Пост 31-Дек-2012 20:02 (спустя 56 минут)

[Q] 

С Наступающим!!!
[Профиль]  [ЛС] 

Luzhok

Легенда

Пост 31-Дек-2012 20:07 (спустя 5 минут)

[Q] 

ага...
давно не виделись...
прям соскучился...
камрады, всех с наступающим!
[Профиль]  [ЛС] 

Quasar76

Пост 01-Янв-2013 03:31 (спустя 7 часов)

[Q] 

С Новым годом!
[Профиль]  [ЛС] 

ivan836

Морской Волк

Пост 01-Янв-2013 10:56 (спустя 7 часов)

[Q] 

С Новым Годом fh
[Профиль]  [ЛС] 

Дядя Витя

53898

Пост 04-Янв-2013 16:43 (спустя 3 дня)

[Q] 

Jigsaw, с наступившим ) !

_________________
?
[Профиль]  [ЛС] 
Показать сообщения:    
Ответить на тему

Текущее время: Сегодня 14:12

Часовой пояс: GMT + 4



Вы не можете начинать темы
Вы не можете отвечать на сообщения
Вы не можете редактировать свои сообщения
Вы не можете удалять свои сообщения
Вы не можете голосовать в опросах
Вы не можете прикреплять файлы к сообщениям
Вы не можете скачивать файлы

▼ Вниз