ML
     
  Уважаемый Гость!
Вы можете поддержать проект и зарегистрироваться у наших партнеров - онлайн-стратегия MyLands. При регистрации в игре Вы получите код, который сможете активировать после регистрации на pirat.ca и получить 1000 дублонов.

Ваш код:
b70663c760e7cd2521b8e123786cdd788200e3bd
 
     

85-я церемония вручения премии «Оскар» (ТВ) / The 85th Annual Academy Awards / (Дон Мишер / Don Mischer) [2013 г., концерт, реальное ТВ, SATRip] AVO [Ю. Сербин, А. Гаврилов]

Ответить на тему
 
Автор
Сообщение

Пост 25-Фев-2013 14:17

[Q] 

Gweg

-85-я церемония вручения премии «Оскар» (ТВ)The 85th Annual Academy Awards-- Производство: США
Жанр: концерт, реальное ТВ
Год выпуска: 2013 г.
Продолжительность: 02:46:22
Мировая премьера: 24 февраля 2013
Российская премьера: 25 февраля 2013
Перевод: Авторский (одноголосый, закадровый)[Ю. Сербин, А. Гаврилов - переводят поочередно]
Режиссер: Дон Мишер / Don Mischer
Ведущий: Сет Макфарлейн-В ролях: Джозеф Гордон-Левитт, Джереми Реннер, Энн Хэтэуэй, Ченнинг Татум, Хью Джекман, Аманда Сайфред, Марк Уолберг, Роберт Дауни мл., Эдди Редмэйн, Рассел Кроу и другие-Описание: 85-я церемония награждения премии «Оскар» за заслуги в области кинематографа за 2012 год.-

Качество видео: SATRip
Контейнер: AVI
Видео кодек: XviD
Аудио кодек: MP3
Видео: 720x400 (1.80:1), 25 fps, XviD MPEG-4 ~1749 kbps avg, 0.24 bit/pixel
Аудио: 48 kHz, MPEG Layer 3, 2 ch, ~128.00 kbps avg
Cубтитры: отсутствуют
Формат : AVI
Формат/Информация : Audio Video Interleave
Профиль формата : OpenDML
Размер файла : 2,19 Гбайт
Продолжительность : 2 ч. 46 м.
Общий поток : 1885 Кбит/сек
Библиотека кодирования : TMPGEnc 4.0 XPress Version. 4.7.7.307
Видео
Идентификатор : 0
Формат : MPEG-4 Visual
Профиль формата : Advanced [email protected]
Параметр BVOP формата : 2
Параметр QPel формата : Нет
Параметр GMC формата : Без точки перехода
Параметр матрицы формата : Default (H.263)
Режим смешивания : Сжатый битовый поток
Идентификатор кодека : XVID
Идентификатор кодека/Подсказка : XviD
Продолжительность : 2 ч. 46 м.
Битрейт : 1750 Кбит/сек
Ширина : 720 пикселей
Высота : 400 пикселей
Соотношение сторон : 16:9
Частота кадров : 25,000 кадров/сек
Цветовое пространство : YUV
Субдискретизация насыщенности : 4:2:0
Битовая глубина : 8 бит
Тип развёртки : Прогрессивная
Метод сжатия : С потерями
Бит/(Пиксели*Кадры) : 0.243
Размер потока : 2,03 Гбайт (93%)
Библиотека кодирования : XviD 1.2.0.dev47 (UTC 2006-11-01)
Аудио
Идентификатор : 1
Формат : MPEG Audio
Версия формата : Version 1
Профиль формата : Layer 3
Режим : Joint stereo
Расширение режима : MS Stereo
Идентификатор кодека : 55
Идентификатор кодека/Подсказка : MP3
Продолжительность : 2 ч. 46 м.
Вид битрейта : Постоянный
Битрейт : 128 Кбит/сек
Каналы : 2 канала
Частота : 48,0 КГц
Метод сжатия : С потерями
Размер потока : 152 Мбайт (7%)
Выравнивание : Соединение по промежуткам
Продолжительность промежутка : 250 мс. (6,25 видеокадров)
Время предзагрузки промежутка : 192 мс.
- -
Download / Скачать

Хотите скачать бесплатно? Зарегистрируйтесь на сайте (ссылка на регистрацию). Pirat.ca - самый быстрый торрент трекер в рунете!

Как скачивать  ·   Что такое торрент  ·   Рейтинг и ограничения



Последний раз редактировалось: Gweg (2013-02-25 17:46), всего редактировалось 1 раз

SHERLANDO

168

Пост 25-Фев-2013 17:36 (спустя 3 часа)

[Q] 

Перевод: Профессиональный (одноголосый, закадровый)
Gweg перевод трансляции для 1 канала сделали Андрей Гаврилов и Юрий Сербин
значит надо указать Авторский (одноголосый, закадровый) перевод. Твой релиз проанонсирован тут:Анонсы раздач, треп о том о сем.


"Лучше без точно сформулированной цели двигаться вперед, чем без цели стоять на месте, и уж наверняка гораздо лучше, чем без цели пятиться."
© Эмиель Регис Рогеллек Терзиефф-Годфрой
[Профиль]  [ЛС] 

UcrusPazzo

7670

Пост 26-Фев-2013 00:43 (спустя 7 часов)

[Q] 

Неплохо!

_________________
[Профиль]  [ЛС] 

spacenoise

Корсар

Пост 26-Фев-2013 00:46 (спустя 3 минуты)

[Q] 

Gweg,благодарю вас за раздачу!

_________________
never give up without a fight
[Профиль]  [ЛС] 

Юрий Я

Шкипер

Пост 18-Апр-2013 16:04 (спустя 1 месяц 20 дней)

[Q] 

[Профиль]  [ЛС] 
Показать сообщения:    
Ответить на тему

Текущее время: Сегодня 00:21

Часовой пояс: GMT + 4



Вы не можете начинать темы
Вы не можете отвечать на сообщения
Вы не можете редактировать свои сообщения
Вы не можете удалять свои сообщения
Вы не можете голосовать в опросах
Вы не можете прикреплять файлы к сообщениям
Вы не можете скачивать файлы

▼ Вниз