ML
     
  Уважаемый Гость!
Вы можете поддержать проект и зарегистрироваться у наших партнеров - онлайн-стратегия MyLands. При регистрации в игре Вы получите код, который сможете активировать после регистрации на pirat.ca и получить 1000 дублонов.

Ваш код:
0ea1bf889af42fca5f67d0a391efb3400850ad7c
 
     

Рэп как искусство / Something from Nothing: The Art of Rap / (Айс-Ти, Энди Бейбатт / Ice-T, Andy Baybutt) [2012 г., документальный, музыка, BDRip] VO

Ответить на тему
 
Автор
Сообщение

Пост 31-Мар-2013 19:43

[Q] 

Gweg

-Рэп как искусствоSomething from Nothing: The Art of Rap-- Производство: Великобритания, США
Жанр: документальный, музыка
Год выпуска: 2012 г.
Продолжительность: 01:51:23
Мировая премьера: 21 января 2012
Перевод: Любительский (одноголосый, закадровый)
Режиссер: Айс-Ти, Энди Бейбатт / Ice-T, Andy Baybutt-В ролях: Канье Уэст, Эминем, Др. Дре, Снуп Догг, Айс-Ти, Бан Б., Б-Риал, Африка Бамбаатаа, Бузи Би, Джо Бадден, Грандмастер Каз, Коммон, Энтони ’Трич’ Крисс, Айс Кьюб, Чак Д., Ройс Да 59, Дэна Дэйн, Мос Деф, Лорд Файниз, Даг Е. Фрэш, Лорд Джамар, Шерил «Солт» Джеймс, Биг Дэдди Кэйн, Рас Касс...-Описание: Рэп-энциклопедия из первых уст: постановщиком этого шумного и боевого фильма стал Айс-Ти, киноактер и крестный отец гангста-рэпа. «Рэп спас мою жизнь», — говорит Айс-Ти, и у нас нет причин в этом сомневаться. Горячечная искренность, а не только «умение быстро говорить» (как презрительно определяли рэп позднесоветские комсомольцы) — отличительная черта рэпа, искусства из слов и мяса.-


Качество видео: BDRip
Контейнер: AVI
Видео кодек: XviD
Аудио кодек: AC3
Видео: 720x400 (1.80:1), 24 fps, XviD MPEG-4 ~2039 kbps avg, 0.29 bit/pixel
Аудио: 48 kHz, MPEG Layer 3, 2 ch, ~128.00 kbps avg
Cубтитры: отсутствуют
Формат : AVI
Формат/Информация : Audio Video Interleave
Размер файла : 1,70 Гбайт
Продолжительность : 1 ч. 51 м.
Общий поток : 2180 Кбит/сек
Название фильма : profile.php?mode=viewprofile&u=22488948
Программа кодирования : XviD4PSP 6.0 / 54.29.105
Библиотека кодирования : VirtualDub build 29808/release
Видео
Идентификатор : 0
Формат : MPEG-4 Visual
Профиль формата : Advanced [email protected]
Параметр BVOP формата : 2
Параметр QPel формата : Нет
Параметр GMC формата : Без точки перехода
Параметр матрицы формата : Default (H.263)
Режим смешивания : Сжатый битовый поток
Идентификатор кодека : XVID
Идентификатор кодека/Подсказка : XviD
Продолжительность : 1 ч. 51 м.
Битрейт : 2040 Кбит/сек
Ширина : 720 пикселей
Высота : 400 пикселей
Соотношение сторон : 16:9
Частота кадров : 24,000 кадра/сек
Цветовое пространство : YUV
Субдискретизация насыщенности : 4:2:0
Битовая глубина : 8 бит
Тип развёртки : Прогрессивная
Метод сжатия : С потерями
Бит/(Пиксели*Кадры) : 0.295
Размер потока : 1,59 Гбайт (94%)
Библиотека кодирования : XviD 73
Аудио
Идентификатор : 1
Формат : MPEG Audio
Версия формата : Version 1
Профиль формата : Layer 3
Режим : Joint stereo
Расширение режима : MS Stereo
Идентификатор кодека : 55
Идентификатор кодека/Подсказка : MP3
Продолжительность : 1 ч. 51 м.
Вид битрейта : Постоянный
Битрейт : 128 Кбит/сек
Каналы : 2 канала
Частота : 48,0 КГц
Метод сжатия : С потерями
Размер потока : 102 Мбайт (6%)
Выравнивание : Соединение по промежуткам
Продолжительность промежутка : 24 мс. (0,58 видеокадр)
Время предзагрузки промежутка : 504 мс.
- -
Download / Скачать

Хотите скачать бесплатно? Зарегистрируйтесь на сайте (ссылка на регистрацию). Pirat.ca - самый быстрый торрент трекер в рунете!

Как скачивать  ·   Что такое торрент  ·   Рейтинг и ограничения

Показать сообщения:    
Ответить на тему

Текущее время: Сегодня 00:32

Часовой пояс: GMT + 4



Вы не можете начинать темы
Вы не можете отвечать на сообщения
Вы не можете редактировать свои сообщения
Вы не можете удалять свои сообщения
Вы не можете голосовать в опросах
Вы не можете прикреплять файлы к сообщениям
Вы не можете скачивать файлы

▼ Вниз