ML
     
  Уважаемый Гость!
Вы можете поддержать проект и зарегистрироваться у наших партнеров - онлайн-стратегия MyLands. При регистрации в игре Вы получите код, который сможете активировать после регистрации на pirat.ca и получить 1000 дублонов.

Ваш код:
0af2e2107bc9b5dd5ac2c09f9fc25e1a77c43887
 
     

Жизнь ежей (Сергей Попов) [2002 г., документальный, IPTV]

Ответить на тему
 
Автор
Сообщение

Пост 02-Апр-2013 17:01

[Q] 

a1b1c1

Гроза морей

-Жизнь ежей-- Производство: Россия , Студия Ф
Жанр: документальный
Год выпуска: 2002 г.
Продолжительность: 00:29:22
Перевод: Не требуется
Режиссер: Сергей Попов-Описание: Фильм, снятый Сергеем Поповым из Санкт-Петербурга о ежах, стал победителем международного кинофестиваля «Человек и природа».-Качество видео: IPTV
Контейнер: AVI
Видео кодек: DivX
Аудио кодек: MP3
Видео: 616х476, 25fps, 1498kbps
Аудио: 48000Hz, stereo, 192kbps ,2ch
Cубтитры: отсутствуют
Общее
Полное имя : \Жизнь ежей.avi
Формат : AVI
Формат/Информация : Audio Video Interleave
Размер файла : 358 Мбайт
Продолжительность : 29 м.
Общий поток : 1703 Кбит/сек
Видео
Идентификатор : 0
Формат : MPEG-4 Visual
Профиль формата : Advanced [email protected]
Параметр BVOP формата : 2
Параметр QPel формата : Нет
Параметр GMC формата : Без точки перехода
Параметр матрицы формата : Default (H.263)
Идентификатор кодека : XVID
Идентификатор кодека/Подсказка : XviD
Продолжительность : 29 м.
Битрейт : 1498 Кбит/сек
Ширина : 616 пикселей
Высота : 476 пикселей
Соотношение сторон : 1,294
Частота кадров : 25,000 кадров/сек
Цветовое пространство : YUV
Субдискретизация насыщенности : 4:2:0
Битовая глубина : 8 бит
Тип развёртки : Прогрессивная
Метод сжатия : С потерями
Бит/(Пиксели*Кадры) : 0.204
Размер потока : 315 Мбайт (88%)
Библиотека кодирования : XviD 1.2.0.dev47 (UTC 2006-11-01)
Аудио
Идентификатор : 1
Формат : MPEG Audio
Версия формата : Version 1
Профиль формата : Layer 3
Режим : Joint stereo
Расширение режима : MS Stereo
Идентификатор кодека : 55
Идентификатор кодека/Подсказка : MP3
Продолжительность : 17 м.
Продолжительность оригинала : 29 м.
Вид битрейта : Постоянный
Битрейт : 192 Кбит/сек
Каналы : 2 канала
Частота : 48,0 КГц
Метод сжатия : С потерями
Размер потока : 40,3 Мбайт (11%)
Выравнивание : Соединение по промежуткам
Продолжительность промежутка : 24 мс. (0,60 видеокадр)
Download / Скачать

Хотите скачать бесплатно? Зарегистрируйтесь на сайте (ссылка на регистрацию). Pirat.ca - самый быстрый торрент трекер в рунете!

Как скачивать  ·   Что такое торрент  ·   Рейтинг и ограничения



Последний раз редактировалось: a1b1c1 (2013-04-02 21:57), всего редактировалось 1 раз

Амангельды

35494

Пост 02-Апр-2013 17:45 (спустя 44 минуты)

[Q] 

Ёжик - это намного громче, чем слонёнок...
Гремит зараза так, что не уснуть...
Отличная раздача...

_________________

Товарищ, верь, пройдет она,
Так называемая гласность.
И вот тогда госбезопасность
Припомнит ваши имена
Раздачи от Амангельды - ТЫНЦ
[Профиль]  [ЛС] 

a1b1c1 ®

Гроза морей

6889

Пост 02-Апр-2013 17:56 (спустя 10 минут)

[Q] 

Амангельды, aa
Спасибо!
[Профиль]  [ЛС] 

Саша1959

Флибустьер

Пост 02-Апр-2013 18:50 (спустя 53 минуты)

[Q] 

Что бы рассеялся туман ежика нужно посмотреть жизнь ежей
[Профиль]  [ЛС] 

Дядя Витя

53912

Пост 02-Апр-2013 19:21 (спустя 30 минут)

[Q] 

Респект йожикам cy

_________________
?
[Профиль]  [ЛС] 

UcrusPazzo

7670

Пост 02-Апр-2013 21:35 (спустя 2 часа 14 минут)

[Q] 

Амангельды, ты как всегда ))) старый больной )))
a1b1c1, подправте продолжительность плиз. Пример: 00:00:00 (час:минута:секунда). А то у вас не понятно что где.

_________________
[Профиль]  [ЛС] 
Показать сообщения:    
Ответить на тему

Текущее время: Сегодня 00:03

Часовой пояс: GMT + 4



Вы не можете начинать темы
Вы не можете отвечать на сообщения
Вы не можете редактировать свои сообщения
Вы не можете удалять свои сообщения
Вы не можете голосовать в опросах
Вы не можете прикреплять файлы к сообщениям
Вы не можете скачивать файлы

▼ Вниз