ML
     
  Уважаемый Гость!
Вы можете поддержать проект и зарегистрироваться у наших партнеров - онлайн-стратегия MyLands. При регистрации в игре Вы получите код, который сможете активировать после регистрации на pirat.ca и получить 1000 дублонов.

Ваш код:
822959f93c00d34653763d5bbf9ee9a7134af98a
 
     

Перевал Дятлова. Отчислены по случаю смерти (Людмила Снигирева) [2013 г., Документальный, HDTVRip]

Ответить на тему
 
Автор
Сообщение

Пост 01-Май-2013 17:00

[Q] 

UcrusPazzo

Перевал Дятлова. Отчислены по случаю смерти
-Производство: Россия, Первый канал совместно с "Комсомольской правдой"
Жанр: Документальный
Год выпуска: 2013 г.
Продолжительность: 00:52:02
Перевод: Не требуется-Автор сценария: Екатерина Алябьева-Режиссер: Людмила Снигирева-Описание: Первый канал и "Комсомольская правда" представляют на суд зрителей и читателей совместное расследование обстоятельств загадочной и трагичной истории, случившейся более полувека назад на Северном Урале.
В феврале 1959 года, в разгар "холодной войны", на Северном Урале при загадочных обстоятельствах погибла группа из 9-ти туристов, возглавляемая Игорем Дятловым. Тела, которые нашли месяц спустя, были изуродованы и полураздеты. Поисковиков поразил необычный, красно-коричневый цвет кожи погибших. Поползли слухи, что туристы погибли при испытаниях секретного оружия.
Прокуратура сразу засекретила дело и вскоре закрыла его, так и не назвав виновных. Вот уже 54 года энтузиасты, исследователи и родственники погибших пытаются понять, что же произошло в ту страшную ночь.
В этом году на место загадочной трагедии отправляется новая экспедиция: Первый канал совместно с журналистами Комсомольской правды проводит собственное расследование. Ее задача – полностью воссоздать картину событий с помощью 9-ти добровольцев из отряда МЧС и участников поисков в 1959-м году.
Опираясь на полученные факты и свидетельства поисковиков, участники экспедиции смогут проверить некоторые обстоятельства гибели студентов и приблизиться к разгадке причин засекреченной трагедии.-Качество видео: HDTVRip
Контейнер: AVI
Видео кодек: DivX
Аудио кодек: MP3
Видео: 720x400 (1.80:1), 25 fps, DivX Codec 6.8.5/6.9.1 ~1500 kbps avg, 0.21 bit/pixel
Аудио: 48 kHz, MPEG Layer 3, 2 ch, ~192.00 kbps avg
Cубтитры: отсутствуют
Общее
Формат : AVI
Формат/Информация : Audio Video Interleave
Размер файла : 633 Мбайт
Продолжительность : 52 м.
Общий поток : 1702 Кбит/сек
Библиотека кодирования : VirtualDub build 32842/release
Видео
Идентификатор : 0
Формат : MPEG-4 Visual
Параметр BVOP формата : 1
Параметр QPel формата : Нет
Параметр GMC формата : Без точки перехода
Параметр матрицы формата : Default (H.263)
Режим смешивания : Сжатый битовый поток
Идентификатор кодека : DX50
Идентификатор кодека/Подсказка : DivX 5
Продолжительность : 52 м.
Битрейт : 1500 Кбит/сек
Ширина : 720 пикселей
Высота : 400 пикселей
Соотношение сторон : 16:9
Частота кадров : 25,000 кадров/сек
Цветовое пространство : YUV
Субдискретизация насыщенности : 4:2:0
Битовая глубина : 8 бит
Тип развёртки : Прогрессивная
Метод сжатия : С потерями
Бит/(Пиксели*Кадры) : 0.208
Размер потока : 558 Мбайт (88%)
Библиотека кодирования : DivX 6.8.5 (UTC 2009-08-20)
Аудио
Идентификатор : 1
Формат : MPEG Audio
Версия формата : Version 1
Профиль формата : Layer 3
Режим : Joint stereo
Идентификатор кодека : 55
Идентификатор кодека/Подсказка : MP3
Продолжительность : 52 м.
Вид битрейта : Постоянный
Битрейт : 192 Кбит/сек
Каналы : 2 канала
Частота : 48,0 КГц
Метод сжатия : С потерями
Размер потока : 71,4 Мбайт (11%)
Выравнивание : Разделение по промежуткам
Продолжительность промежутка : 40 мс. (1,00 видеокадр)
Время предзагрузки промежутка : 500 мс.
Download / Скачать

Хотите скачать бесплатно? Зарегистрируйтесь на сайте (ссылка на регистрацию). Pirat.ca - самый быстрый торрент трекер в рунете!

Как скачивать  ·   Что такое торрент  ·   Рейтинг и ограничения



Последний раз редактировалось: UcrusPazzo (2013-05-02 11:46), всего редактировалось 1 раз

letchik000

1276

Пост 01-Май-2013 18:41 (спустя 1 час 41 минута)

[Q] 

[Профиль]  [ЛС] 

Дядя Витя

53912

Пост 01-Май-2013 20:12 (спустя 1 час 31 минута)

[Q] 


_________________
?
[Профиль]  [ЛС] 

UcrusPazzo ®

7670

Пост 02-Май-2013 09:07 (спустя 12 часов)

[Q] 

letchik000, VIT74, пожалуйста господа! ))

_________________
[Профиль]  [ЛС] 

PITON5328

Морской Волк

Пост 07-Май-2013 08:52 (спустя 4 дня)

[Q] 

Спасибо

_________________
[Профиль]  [ЛС] 

mersicc

Корсар

1614

Пост 11-Ноя-2013 19:08 (спустя 6 месяцев 4 дня)

[Q] 

Перевал Дятлова. Тему обсосали по всем каналам.. што да как...
Ни кто ни чего не знает одни догадки.. больше нет ни чего.

_________________
[Профиль]  [ЛС] 
Показать сообщения:    
Ответить на тему

Текущее время: Сегодня 05:56

Часовой пояс: GMT + 4



Вы не можете начинать темы
Вы не можете отвечать на сообщения
Вы не можете редактировать свои сообщения
Вы не можете удалять свои сообщения
Вы не можете голосовать в опросах
Вы не можете прикреплять файлы к сообщениям
Вы не можете скачивать файлы

▼ Вниз