ML
     
  Уважаемый Гость!
Вы можете поддержать проект и зарегистрироваться у наших партнеров - онлайн-стратегия MyLands. При регистрации в игре Вы получите код, который сможете активировать после регистрации на pirat.ca и получить 1000 дублонов.

Ваш код:
822959f93c00d34653763d5bbf9ee9a7134af98a
 
     

Познавательное ТВ: Основы геополитики (Лекция Александра Дугина в МГУ) [2012 г., Лекция, документальный, HDRip]

Ответить на тему
 
Автор
Сообщение

Пост 21-Май-2013 17:11

[Q] 

a1b1c1

Гроза морей

-Познавательное ТВ: Основы геополитики-- Производство: Россия , Познавательное ТВ
Жанр: Лекция , документальный
Год выпуска: 2012 г.
Продолжительность: 01:30:15
Перевод: Не требуется
Режиссер: Артём Войтенков-В ролях: Александр Дугин-Описание: Лекция Александра Дугина в МГУ по основам геополитики.
Или почему все нападают на Россию-Качество видео: HDRip
Контейнер: webm
Видео кодек: VP8
Аудио кодек: OGG Vorbis
Видео: 854x480, 657 Кбит/с, 25 кадр/с
Аудио: Vorbis, 44.1 КГц, 2 канала, 128 Кбит/c
Cубтитры: отсутствуют
Общее
Полное имя : ОСНОВЫ ГЕОПОЛИТИКИ.webm
Формат : WebM
Версия формата : Version 2
Размер файла : 464 Мбайт
Продолжительность : 1 ч. 30 м.
Режим общего битрейта : Переменный
Общий поток : 720 Кбит/сек
Программа кодирования : google
Библиотека кодирования : google
Видео
Идентификатор : 1
Формат : VP8
Идентификатор кодека : V_VP8
Продолжительность : 1 ч. 30 м.
Битрейт : 554 Кбит/сек
Ширина : 854 пикселя
Высота : 480 пикселей
Соотношение сторон : 16:9
Режим частоты кадров : Постоянный
Частота кадров : 24,194 кадра/сек
Метод сжатия : С потерями
Бит/(Пиксели*Кадры) : 0.056
Размер потока : 358 Мбайт (77%)
Язык : English
Default : Да
Forced : Нет
Аудио
Идентификатор : 2
Формат : Vorbis
Параметр Floor формата : 1
Идентификатор кодека : A_VORBIS
Продолжительность : 1 ч. 30 м.
Вид битрейта : Переменный
Битрейт : 128 Кбит/сек
Каналы : 2 канала
Частота : 44,1 КГц
Метод сжатия : С потерями
Размер потока : 82,6 Мбайт (18%)
Default : Да
Forced : Нет
Download / Скачать

Хотите скачать бесплатно? Зарегистрируйтесь на сайте (ссылка на регистрацию). Pirat.ca - самый быстрый торрент трекер в рунете!

Как скачивать  ·   Что такое торрент  ·   Рейтинг и ограничения

Дядя Витя

53912

Пост 21-Май-2013 19:40 (спустя 2 часа 29 минут)

[Q] 


_________________
?
[Профиль]  [ЛС] 

Амангельды

35494

Пост 21-Май-2013 19:47 (спустя 6 минут)

[Q] 

a1b1c1, кстати, прошу выложить Федорова от 05.05.2013 -- интересная штука...

_________________

Товарищ, верь, пройдет она,
Так называемая гласность.
И вот тогда госбезопасность
Припомнит ваши имена
Раздачи от Амангельды - ТЫНЦ
[Профиль]  [ЛС] 

a1b1c1 ®

Гроза морей

6889

Пост 21-Май-2013 20:41 (спустя 54 минуты)

[Q] 

VIT74, Амангельды, Приветствую! aa
Попозжее выложу , а то сайт сильно лагает ai
[Профиль]  [ЛС] 
Показать сообщения:    
Ответить на тему

Текущее время: Сегодня 05:55

Часовой пояс: GMT + 4



Вы не можете начинать темы
Вы не можете отвечать на сообщения
Вы не можете редактировать свои сообщения
Вы не можете удалять свои сообщения
Вы не можете голосовать в опросах
Вы не можете прикреплять файлы к сообщениям
Вы не можете скачивать файлы

▼ Вниз