ML
     
  Уважаемый Гость!
Вы можете поддержать проект и зарегистрироваться у наших партнеров - онлайн-стратегия MyLands. При регистрации в игре Вы получите код, который сможете активировать после регистрации на pirat.ca и получить 1000 дублонов.

Ваш код:
8dcb839cf1b47e56d6dc42d17f26b3e4822e9aee
 
     

Концепция общественной безопасности. Тайны управления человечеством. Курс лекций. (КПЕ) [2004 г., история, документальный, обучающий, SATRip]

Ответить на тему
 
Автор
Сообщение

Пост 26-Май-2013 13:35

[Q] 

a1b1c1

Гроза морей

-Концепция общественной безопасности. Тайны управления человечеством. Курс лекций.-- Производство: Академия Управления при Концептуальной Партии «ЕДИНЕНИЕ» (КПЕ)
Жанр: история, документальный, обучающий
Год выпуска: 2004 г.
Продолжительность: примерно 31ч
Перевод: Не требуется
Режиссер: Петров Константин Павлович / Академия Управления при Концептуальной Партии «ЕДИНЕНИЕ» (КПЕ)
Официальный сайт: http://www.vodaspb.ru/-В ролях: Петров Константин Павлович-Описание: Концепция общественной безопасности (КОБ) - это и идея о построении действительно достойного звания человека общества человеков, и определённое понимание мироустройства, позволяющее воплотить эту идею в жизнь. В ней проанализированы мировоззренческие системы, идеологии, вероучения, дан сравнительный анализ “священных” писаний. Разработаны методология познания, достаточно общая (в смысле универсальности применения) теория управления, приоритеты управления обществом и его модель, понятие высшего уровня власти, закон времени (смена логики социального поведения людей в XX веке), экономическая теория, взгляд на богословие, философию, психологию, педагогику, социологию, глобальный исторический процесс и место России в нём.-Качество видео: SATRip
Контейнер: AVI
Видео кодек: DivX
Аудио кодек: MPEG
Видео: 720x576 (1.25:1), 25 fps, DivX Codec 5.05 ~751 kbps avg, 0.07 bit/pixel
Аудио: 24 kHz, MPEG Layer 3, 2 ch, ~48.00 kbps avg
Cубтитры: отсутствуют
Общее
Полное имя : \КОБ\01_1_Вводная.avi
Формат : AVI
Формат/Информация : Audio Video Interleave
Размер файла : 623 Мбайт
Продолжительность : 1 ч. 47 м.
Общий поток : 809 Кбит/сек
Библиотека кодирования : VirtualDub build 16297/release
Видео
Идентификатор : 0
Формат : MPEG-4 Visual
Параметр BVOP формата : Да
Параметр QPel формата : Нет
Параметр GMC формата : Без точки перехода
Параметр матрицы формата : Default (H.263)
Идентификатор кодека : DX50
Идентификатор кодека/Подсказка : DivX 5
Продолжительность : 1 ч. 47 м.
Битрейт : 752 Кбит/сек
Ширина : 720 пикселей
Высота : 576 пикселей
Соотношение сторон : 5:4
Частота кадров : 25,000 кадров/сек
Стандарт вещания : PAL
Цветовое пространство : YUV
Субдискретизация насыщенности : 4:2:0
Битовая глубина : 8 бит
Тип развёртки : Прогрессивная
Метод сжатия : С потерями
Бит/(Пиксели*Кадры) : 0.072
Размер потока : 579 Мбайт (93%)
Библиотека кодирования : DivX 5.0.5 (UTC 2003-04-24)
Аудио
Идентификатор : 1
Формат : MPEG Audio
Версия формата : Version 2
Профиль формата : Layer 3
Режим : Joint stereo
Расширение режима : Intensity Stereo
Идентификатор кодека : 55
Идентификатор кодека/Подсказка : MP3
Продолжительность : 1 ч. 47 м.
Вид битрейта : Постоянный
Битрейт : 48,0 Кбит/сек
Каналы : 2 канала
Частота : 24,0 КГц
Метод сжатия : С потерями
Размер потока : 37,0 Мбайт (6%)
Выравнивание : Разделение по промежуткам
Продолжительность промежутка : 40 мс. (1,00 видеокадр)
Время предзагрузки промежутка : 500 мс.
«Тайны управления человечеством».
«Мы учим не только предсказывать будущее, мы учим управлять им».
Цикл лекций включает в себя изложение современным языком древних мировоззренческих и философских положений, скрываемых от человечества, и их сравнение с существующими. Обнажаются ложные понятия и представления, обосновываются и доказываются истинные.
С этих позиций проводится анализ истории человечества как процесса управляемого и роль России в этом процессе. Раскрывается происхождение человечества, его история и предназначение его существования.
Подробно даются основы управления общественными процессами как на региональном, так и на глобальном уровнях управления.
Проводится анализ различных вероучений, религиозных культов и светских идеологий (в том числе масонства) в управлении социальными системами и процессами. Подробно изложен механизм воздействия эгрегоров и ноосферы на жизнь людей и ход общественных процессов, рассказывается о роли психики руководителей в этом управлении.
Достаточно подробно излагаются основы управления экономическими процессами и роль в этом мировой кредитно-финансовой системы, основанной на ростовщичестве. Вскрываются механизмы обмана людей, обосновываются справедливые способы управления экономикой.
Наконец, раскрывается новое информационное состояние человечества, даётся описание нынешнего положения дел в мире и в России. Излагаются принципы справедливого жизнеустройства и чётко формулируются пути и способы его установления.
Курс видеолекций предназначен в основном для студентов ВУЗов всех профилей (поскольку затрагивает положение дел во всех сферах жизнедеятельности) и будет хорошим подспорьем в написании курсовых и дипломных работ.
Он будет полезен думающим старшеклассникам, стремящимся к получению расширенных знаний, которые будут востребованы в дальнейшей жизни, в том числе и в получении высшего образования.
Курс просто необходим профессорско-преподавательскому составу ВУЗов, колледжей и учителям общеобразовательных и специализированных школ ещё и потому, что те, кому они дают знания, очень скоро будут задавать вопросы своим преподавателям по проблематике настоящего видеокурса.
Курс лекций, безусловно, необходим управленцам всех уровней («от Кремля до самых до окраин»).
Курс будет интересен всем думающим людям.
Для более полного понимания желательно быть трезвым!!!От себя добавлю: Если вам становится трудно, непонятно смотреть , то отложите просмотр на несколько недель , месяцев...Потом к вам придёт озарение и станут понятными многие вещи , о которых говорится в раздаче.
Download / Скачать

Хотите скачать бесплатно? Зарегистрируйтесь на сайте (ссылка на регистрацию). Pirat.ca - самый быстрый торрент трекер в рунете!

Как скачивать  ·   Что такое торрент  ·   Рейтинг и ограничения

Показать сообщения:    
Ответить на тему

Текущее время: Сегодня 04:14

Часовой пояс: GMT + 4



Вы не можете начинать темы
Вы не можете отвечать на сообщения
Вы не можете редактировать свои сообщения
Вы не можете удалять свои сообщения
Вы не можете голосовать в опросах
Вы не можете прикреплять файлы к сообщениям
Вы не можете скачивать файлы

▼ Вниз