ML
     
  Уважаемый Гость!
Вы можете поддержать проект и зарегистрироваться у наших партнеров - онлайн-стратегия MyLands. При регистрации в игре Вы получите код, который сможете активировать после регистрации на pirat.ca и получить 1000 дублонов.

Ваш код:
a978488e62322cd72e113ab723b8a7fdc10eb9b9
 
     

Познавательное ТВ: Евгений Фёдоров 23 мая 2013 (Артём Войтенков) [документальный, общение, HDRip]

Ответить на тему
 
Автор
Сообщение

Пост 01-Июн-2013 12:01

[Q] 

a1b1c1

Гроза морей

-Познавательное ТВ: Евгений Фёдоров 23 мая 2013 -- Производство: Россия , Познавательное ТВ
Жанр: документальный , общение
Год выпуска: 2013 г.
Продолжительность: 02:59:20
Перевод: Не требуется
Режиссер: Артём Войтенков-В ролях: Евгений Фёдоров, Денис Ганич, Артём Войтенков, Александр Богомолов, Стэлла Куценко-Описание: Разговор с депутатом Государственной Думы РФ о том, как выявлять лодырей и предателей, колониальном управлении Россией, рукотворных кризисах, американских агентах, устройстве российской власти и уличной поддержке.
Поднимаются вопросы:
Как цензуируют Путина .
"Я верю , что страна оккупирована , но не верю Путину..." ---- Фёдоров отвечает на этот вопрос.
Чем отличаются Российские депутаты от депутатов других стран.
Что будет в конце года...
Как может дойти правда до гражданина , когда изо всех щелей лезет американская пропаганда?
На нас напали французы --- Мы дошли до Парижа .На нас напали немцы --- Мы дошли до Берлина . Дойдём до Вашингтона?-Качество видео: HDRip
Контейнер: WMV
Видео кодек: VP8
Аудио кодек: Vorbis
Видео: 854x480, 690 Кбит/с, 25 кадр/с
Аудио: Vorbis, 44.1 КГц, 2 канала, 128 Кбит/с
Cубтитры: отсутствуют
Общее
Уникальный идентификатор : 212612828222725006967845085458512946581 (0x9FF3BDC2225152551CCEFC98E6FF2595)
Полное имя : ЕВГЕНИЙ ФЁДОРОВ 23.05.13.webm
Формат : WebM
Версия формата : Version 2
Размер файла : 1,08 Гбайт
Продолжительность : 2 ч. 59 м.
Режим общего битрейта : Переменный
Общий поток : 861 Кбит/сек
Программа кодирования : Google
Библиотека кодирования : Google
Видео
Идентификатор : 1
Формат : VP8
Идентификатор кодека : V_VP8
Продолжительность : 2 ч. 59 м.
Битрейт : 690 Кбит/сек
Ширина : 854 пикселя
Высота : 480 пикселей
Соотношение сторон : 16:9
Режим частоты кадров : Постоянный
Частота кадров : 24,194 кадра/сек
Метод сжатия : С потерями
Бит/(Пиксели*Кадры) : 0.070
Размер потока : 885 Мбайт (80%)
Default : Да
Forced : Нет
Аудио
Идентификатор : 2
Формат : Vorbis
Параметр Floor формата : 1
Идентификатор кодека : A_VORBIS
Продолжительность : 2 ч. 59 м.
Вид битрейта : Переменный
Битрейт : 128 Кбит/сек
Каналы : 2 канала
Частота : 44,1 КГц
Метод сжатия : С потерями
Задержка видео : -25 мс.
Размер потока : 164 Мбайт (15%)
Default : Да
Forced : Нет
Программа кодирования : Google
Download / Скачать

Хотите скачать бесплатно? Зарегистрируйтесь на сайте (ссылка на регистрацию). Pirat.ca - самый быстрый торрент трекер в рунете!

Как скачивать  ·   Что такое торрент  ·   Рейтинг и ограничения

Показать сообщения:    
Ответить на тему

Текущее время: Сегодня 22:05

Часовой пояс: GMT + 4



Вы не можете начинать темы
Вы не можете отвечать на сообщения
Вы не можете редактировать свои сообщения
Вы не можете удалять свои сообщения
Вы не можете голосовать в опросах
Вы не можете прикреплять файлы к сообщениям
Вы не можете скачивать файлы

▼ Вниз