ML
     
  Уважаемый Гость!
Вы можете поддержать проект и зарегистрироваться у наших партнеров - онлайн-стратегия MyLands. При регистрации в игре Вы получите код, который сможете активировать после регистрации на pirat.ca и получить 1000 дублонов.

Ваш код:
822959f93c00d34653763d5bbf9ee9a7134af98a
 
     

Лекция Владимира Жданова: Верни себе зрение (Марина Куликова) [2010 г., Исцеленеие, Лекция, DVDRip]

Ответить на тему
 
Автор
Сообщение

Пост 05-Июн-2013 21:07

[Q] 

a1b1c1

Гроза морей

-Лекция Владимира Жданова: Верни себе зрение-- Производство: Россия
Жанр: Исцеленеие , Лекция
Год выпуска: 2010 г.
Продолжительность: 01:31:55
Перевод: Не требуется
Режиссер: Марина Куликова-В ролях: Жданов Владимир Георгиевич-Описание: Жданов Владимир Георгиевич в этой лекции рассказывает как и какими способами и лекарствами можно восстановить своё драгоценное зрение.Какие расстройства и болезни бывают у глаз. Жданов категорически против очков и контактных линз , так-как они сильно напрягают и истощают глаза.Ну и много чего вы можете узнать просмотрев эту лекцию . Вступительная лекция по восстановлению зрения в Орловском Государственном Институте Экономики и Торговли. -Качество видео: DVDRip
Контейнер: AVI
Видео кодек: XviD
Аудио кодек: MP3
Видео: 720x540 (1.33:1), 25 fps, XviD build 50 ~1026 kbps avg, 0.11 bit/pixel
Аудио: 48 kHz, MPEG Layer 3, 2 ch, ~128.00 kbps avg
Cубтитры: отсутствуют
Общее
Полное имя : Лекция Владимира Жданова-Верни себе зрение (28 октября 2010).avi
Формат : AVI
Формат/Информация : Audio Video Interleave
Размер файла : 684 Мбайт
Продолжительность : 1 ч. 31 м.
Общий поток : 1040 Кбит/сек
Видео
Идентификатор : 0
Формат : MPEG-4 Visual
Профиль формата : Advanced [email protected]
Параметр BVOP формата : 2
Параметр QPel формата : Нет
Параметр GMC формата : Без точки перехода
Параметр матрицы формата : Default (H.263)
Идентификатор кодека : XVID
Идентификатор кодека/Подсказка : XviD
Продолжительность : 1 ч. 31 м.
Битрейт : 899 Кбит/сек
Ширина : 720 пикселей
Высота : 540 пикселей
Соотношение сторон : 4:3
Частота кадров : 25,000 кадров/сек
Цветовое пространство : YUV
Субдискретизация насыщенности : 4:2:0
Битовая глубина : 8 бит
Тип развёртки : Прогрессивная
Метод сжатия : С потерями
Бит/(Пиксели*Кадры) : 0.093
Размер потока : 591 Мбайт (86%)
Библиотека кодирования : XviD 1.2.1 (UTC 2008-12-04)
Аудио
Идентификатор : 1
Формат : MPEG Audio
Версия формата : Version 1
Профиль формата : Layer 3
Идентификатор кодека : 55
Идентификатор кодека/Подсказка : MP3
Продолжительность : 1 ч. 31 м.
Продолжительность оригинала : 1 ч. 31 м.
Вид битрейта : Постоянный
Битрейт : 128 Кбит/сек
Каналы : 2 канала
Частота : 48,0 КГц
Метод сжатия : С потерями
Размер потока : 84,2 Мбайт (12%)
Выравнивание : Разделение по промежуткам
Продолжительность промежутка : 24 мс. (0,60 видеокадр)
Download / Скачать

Хотите скачать бесплатно? Зарегистрируйтесь на сайте (ссылка на регистрацию). Pirat.ca - самый быстрый торрент трекер в рунете!

Как скачивать  ·   Что такое торрент  ·   Рейтинг и ограничения

leonid.

Флибустьер

Пост 06-Июн-2013 00:55 (спустя 3 часа)

[Q] 

спасибо!
[Профиль]  [ЛС] 
Показать сообщения:    
Ответить на тему

Текущее время: Сегодня 05:54

Часовой пояс: GMT + 4



Вы не можете начинать темы
Вы не можете отвечать на сообщения
Вы не можете редактировать свои сообщения
Вы не можете удалять свои сообщения
Вы не можете голосовать в опросах
Вы не можете прикреплять файлы к сообщениям
Вы не можете скачивать файлы

▼ Вниз