ML
     
  Уважаемый Гость!
Вы можете поддержать проект и зарегистрироваться у наших партнеров - онлайн-стратегия MyLands. При регистрации в игре Вы получите код, который сможете активировать после регистрации на pirat.ca и получить 1000 дублонов.

Ваш код:
47bfc18b89c74e4ae0d974e9b6943639e2bff08e
 
     

Новая Хронология. История: наука или вымысел / Сезон: 1, 2 / Серии: 1-24 [2009-2011 гг., Альтернативная история, DVDRip, 704-720p]

Ответить на тему
 
Автор
Сообщение

Пост 13-Июн-2013 10:54

[Q] 

Эвакуация

-Новая Хронология. История: наука или вымысел-- Производство: Россия, Кинокомпания «Godland Pictures»
Официальный сайт: Новая Хронология
Жанр: Альтернативная история
Год выпуска: 2009-2011 гг.
Продолжительность: 24 х ~00:55:00
Перевод: Не требуется
Оригинальный аудиопоток: Русский
Режиссеры: Юлия Коробко, Алексей Кулагин, Наталья Исакова, Иван Мазепа, Юрий Елхов, Андрей Афанасов, Александр Лютенков-Описание:
Современная историческая наука трещит по швам. Ученые - математики, создавшие новые математические методы исследования исторических документов не оставили камня на камне от общепринятой хронологии исторических событий. А ведь хронология лежит в основе истории, являясь ее «позвоночным столбом». Изменение хронологии автоматически приводит к необходимости пересмотреть все события мировой истории. Оказывается, что многих известных нам по книгам и кино властителей и даже событий древнего мира не существовало вовсе, что они являются фантомами, отображением более поздних средневековых правителей и событий. Реконструкция истории, проведенная учеными на основании новой хронологии мира, устраняет большое количество тайн и загадок в прошлом человечества, находит простые и логические объяснения тем историческим событиям, о которых историки спорят уже не одно столетие. Выясняется также, что история европейских государств искусственно растянута в прошлое, а история Руси намеренно укорочена. Более того, после знакомства с настоящей Реконструкцией истории становится понятным многое из происходящего в наши дни...
Научные книги и музейные экспозиции, исторические романы и кинофильмы убеждают нас, что об истории человечества известно почти все и практически на любой вопрос пытливого разума у историков обязательно найдется готовый ответ. Однако если мы вглядимся в наше прошлое более пристально, то обнаружим там множество странностей и нестыковок. Почему, скажем, обычно внимательные к историческим деталям живописцы средневековья изображали библейских и античных персонажей, как своих современников? Как древние воины могли рубить своих врагов бронзовыми мечами, если бронзы в те времена еще не было? И откуда взялось в Древнем Египте оружие из железа? А на каком основании Иван Грозный называл себя прямым потомком римского императора Августа? Казалось бы, эти и многие другие загадки должны были заставить историков пристальнее вглядеться в наше прошлое. Но этого до сих пор не случилось, и потому невольно возникает вопрос: а действительно ли мы знаем свою историю?..
Общее
Полное имя : [Pirat.ca]_Isnoria.Nauka.ili.Vymysel_24.Serii\01. Знаем ли мы свою историю.avi
Формат : AVI
Формат/Информация : Audio Video Interleave
Размер файла : 504 Мбайт
Продолжительность : 52 м.
Общий поток : 1335 Кбит/сек
Библиотека кодирования : VirtualDub build 32706/release
Видео
Идентификатор : 0
Формат : MPEG-4 Visual
Профиль формата : Advanced [email protected]
Параметр BVOP формата : 1
Параметр QPel формата : Да
Параметр GMC формата : Без точки перехода
Параметр матрицы формата : Default (MPEG)
Идентификатор кодека : XVID
Идентификатор кодека/Подсказка : XviD
Продолжительность : 52 м.
Битрейт : 1197 Кбит/сек
Ширина : 704 пикселя
Высота : 416 пикселей
Соотношение сторон : 1,85:1
Частота кадров : 25,000 кадров/сек
Цветовое пространство : YUV
Субдискретизация насыщенности : 4:2:0
Битовая глубина : 8 бит
Тип развёртки : Прогрессивная
Метод сжатия : С потерями
Бит/(Пиксели*Кадры) : 0.164
Размер потока : 452 Мбайт (90%)
Библиотека кодирования : XviD 1.2.1 (UTC 2008-12-04)
Аудио
Идентификатор : 1
Формат : MPEG Audio
Версия формата : Version 1
Профиль формата : Layer 3
Режим : Joint stereo
Расширение режима : MS Stereo
Идентификатор кодека : 55
Идентификатор кодека/Подсказка : MP3
Продолжительность : 52 м.
Вид битрейта : Постоянный
Битрейт : 128 Кбит/сек
Каналы : 2 канала
Частота : 44,1 КГц
Метод сжатия : С потерями
Размер потока : 48,3 Мбайт (10%)
Выравнивание : Разделение по промежуткам
Продолжительность промежутка : 40 мс. (1,00 видеокадр)
Время предзагрузки промежутка : 500 мс.
Библиотека кодирования : LAME3.98.2
С древнейших времен и до наших дней вся история человечества четко датирована. В многочисленных исторических и археологических справочниках можно найти ответ практически на любой вопрос. В музеях всего мира хранятся уникальные экспонаты - свидетели ушедших эпох. Среди них вряд ли найдется хоть один, на табличке которого будет написано: "происхождение неизвестно" или "возраст неизвестен". Все эти предметы педантично сгруппированы и разложены в строгом хронологическом порядке. Но почему ученые пришли к выводу, что, например, вот этот кувшин относится к пятому веку до нашей эры, а этот - к восьмому веку уже нашей эры? Принято считать, что методы определения возраста древних объектов хорошо проверены, а главное, очень надежны. Но так ли это на самом деле? Действительно ли мировая история основана на строгих научных доказательствах?..
Общее
Полное имя : [Pirat.ca]_Isnoria.Nauka.ili.Vymysel_24.Serii\02. На чем основана история.avi
Формат : AVI
Формат/Информация : Audio Video Interleave
Размер файла : 497 Мбайт
Продолжительность : 52 м.
Общий поток : 1335 Кбит/сек
Библиотека кодирования : VirtualDub build 32706/release
Видео
Идентификатор : 0
Формат : MPEG-4 Visual
Профиль формата : Advanced [email protected]
Параметр BVOP формата : 1
Параметр QPel формата : Да
Параметр GMC формата : Без точки перехода
Параметр матрицы формата : Default (MPEG)
Идентификатор кодека : XVID
Идентификатор кодека/Подсказка : XviD
Продолжительность : 52 м.
Битрейт : 1197 Кбит/сек
Ширина : 704 пикселя
Высота : 416 пикселей
Соотношение сторон : 1,85:1
Частота кадров : 25,000 кадров/сек
Цветовое пространство : YUV
Субдискретизация насыщенности : 4:2:0
Битовая глубина : 8 бит
Тип развёртки : Прогрессивная
Метод сжатия : С потерями
Бит/(Пиксели*Кадры) : 0.164
Размер потока : 446 Мбайт (90%)
Библиотека кодирования : XviD 1.2.1 (UTC 2008-12-04)
Аудио
Идентификатор : 1
Формат : MPEG Audio
Версия формата : Version 1
Профиль формата : Layer 3
Режим : Joint stereo
Расширение режима : MS Stereo
Идентификатор кодека : 55
Идентификатор кодека/Подсказка : MP3
Продолжительность : 52 м.
Вид битрейта : Постоянный
Битрейт : 128 Кбит/сек
Каналы : 2 канала
Частота : 44,1 КГц
Метод сжатия : С потерями
Размер потока : 47,7 Мбайт (10%)
Выравнивание : Разделение по промежуткам
Продолжительность промежутка : 40 мс. (1,00 видеокадр)
Время предзагрузки промежутка : 500 мс.
Библиотека кодирования : LAME3.98.2
К сожалению, существующие сегодня научные методы датирования предметов прошлого далеки от совершенства. Тем самым бывает крайне сложно, а чаще и просто невозможно выстроить хронологию исторических событий. А общепринятая сегодня хронология событий, построенная с помощью этих методов, не может считаться абсолютно правильной. Получается, что история – в особенности «древняя», «античная» и средневековая - это в значительной степени миф, вымысел, роман. Все что угодно, только не наука. И о своем прошлом человечество мало что знает. Но все-таки у нас есть шанс восстановить истину. И дают нам такой шанс не историки, а… математики. Этот фильм посвящен уникальным авторским методам датировки исторических событий, разработанным российским ученым, академиком Российской Академии наук Анатолием Тимофеевичем Фоменко. Применив эти методы, ученые установили, что настоящая история человечества намного короче той, которую мы изучаем в школах и университетах...
Общее
Полное имя : [Pirat.ca]_Isnoria.Nauka.ili.Vymysel_24.Serii\03. Истину можно вычислить.avi
Формат : AVI
Формат/Информация : Audio Video Interleave
Размер файла : 650 Мбайт
Продолжительность : 52 м.
Общий поток : 1741 Кбит/сек
Название фильма : New.Title1.DVDRip
Программа кодирования : Lavf52.17.0
Формат оригинала/Имя : New
Видео
Идентификатор : 0
Формат : MPEG-4 Visual
Профиль формата : [email protected]
Параметр BVOP формата : Нет
Параметр QPel формата : Нет
Параметр GMC формата : Без точки перехода
Параметр матрицы формата : Default (H.263)
Идентификатор кодека : DX50
Идентификатор кодека/Подсказка : DivX 5
Продолжительность : 52 м.
Битрейт : 1600 Кбит/сек
Ширина : 720 пикселей
Высота : 400 пикселей
Соотношение сторон : 16:9
Частота кадров : 25,000 кадров/сек
Цветовое пространство : YUV
Субдискретизация насыщенности : 4:2:0
Битовая глубина : 8 бит
Тип развёртки : Прогрессивная
Метод сжатия : С потерями
Бит/(Пиксели*Кадры) : 0.222
Размер потока : 597 Мбайт (92%)
Библиотека кодирования : XviD 1.1.2 (UTC 2006-11-01)
Аудио
Идентификатор : 1
Формат : MPEG Audio
Версия формата : Version 1
Профиль формата : Layer 3
Режим : Joint stereo
Расширение режима : MS Stereo
Идентификатор кодека : 55
Идентификатор кодека/Подсказка : MP3
Продолжительность : 52 м.
Вид битрейта : Постоянный
Битрейт : 128 Кбит/сек
Каналы : 2 канала
Частота : 48,0 КГц
Метод сжатия : С потерями
Размер потока : 47,8 Мбайт (7%)
Выравнивание : Соединение по промежуткам
Продолжительность промежутка : 24 мс. (0,60 видеокадр)
Среди многочисленных памятников, оставленных древними цивилизациями, безусловно, самыми известными являются пирамиды Древнего Египта. Считается, что давно известно, кто, когда и зачем их строил. Но до сих пор нет ответа на вопрос: как строили? Как древние зодчие обрабатывали и перемещали огромные каменные блоки? Гипотез много, но любая из них содержит слабые места. Многочисленные попытки исследователей проверить теорию практикой завершались неудачно. Но еще во второй половине 20 века инженеры-химики провели экспертизы древнеегипетского строительного камня. Загадка древних пирамид была разгадана! Но это открытие не стало сенсацией. Научный мир ответил полным молчанием. Египтологи как будто не заметили открытия. И не хотят замечать его до сих пор...
Общее
Полное имя : [Pirat.ca]_Isnoria.Nauka.ili.Vymysel_24.Serii\04. Алхимия пирамид, или Как строили в древнем Египте.avi
Формат : AVI
Формат/Информация : Audio Video Interleave
Размер файла : 498 Мбайт
Продолжительность : 52 м.
Общий поток : 1334 Кбит/сек
Библиотека кодирования : VirtualDub build 32706/release
Видео
Идентификатор : 0
Формат : MPEG-4 Visual
Профиль формата : Advanced [email protected]
Параметр BVOP формата : 1
Параметр QPel формата : Да
Параметр GMC формата : Без точки перехода
Параметр матрицы формата : Default (MPEG)
Идентификатор кодека : XVID
Идентификатор кодека/Подсказка : XviD
Продолжительность : 52 м.
Битрейт : 1196 Кбит/сек
Ширина : 704 пикселя
Высота : 416 пикселей
Соотношение сторон : 1,85:1
Частота кадров : 25,000 кадров/сек
Цветовое пространство : YUV
Субдискретизация насыщенности : 4:2:0
Битовая глубина : 8 бит
Тип развёртки : Прогрессивная
Метод сжатия : С потерями
Бит/(Пиксели*Кадры) : 0.163
Размер потока : 447 Мбайт (90%)
Библиотека кодирования : XviD 1.2.1 (UTC 2008-12-04)
Аудио
Идентификатор : 1
Формат : MPEG Audio
Версия формата : Version 1
Профиль формата : Layer 3
Режим : Joint stereo
Расширение режима : MS Stereo
Идентификатор кодека : 55
Идентификатор кодека/Подсказка : MP3
Продолжительность : 52 м.
Вид битрейта : Постоянный
Битрейт : 128 Кбит/сек
Каналы : 2 канала
Частота : 44,1 КГц
Метод сжатия : С потерями
Размер потока : 47,8 Мбайт (10%)
Выравнивание : Разделение по промежуткам
Продолжительность промежутка : 40 мс. (1,00 видеокадр)
Время предзагрузки промежутка : 500 мс.
Библиотека кодирования : LAME3.98.2
Мир пирамид, фараонов и сфинксов. Мир тайны, которая уводит нас в небывалую даль времен. Чтобы прикоснуться к этой тайне, в Египет тянутся туристы со всего света. Посещая египетские гробницы и храмы, они рассматривают великолепные рисунки и барельефы, которые сохранились до наших дней. Эти рисунки - зодиаки, которые ученые и строители Древнего Египта оставили своим потомкам. Считается, что эти знаки до сих пор не разгаданы. Однако российским ученым-математикам удалось их расшифровать. Оказалось, что в этих знаках зашифрованы важные даты истории Египта. Но официальная египтология не хочет этого замечать и упорно хранит молчание. Почему? О чем могут рассказать эти старинные изображения?..
Общее
Полное имя : [Pirat.ca]_Isnoria.Nauka.ili.Vymysel_24.Serii\05. Тайна египетских зодиаков.avi
Формат : AVI
Формат/Информация : Audio Video Interleave
Размер файла : 518 Мбайт
Продолжительность : 54 м.
Общий поток : 1340 Кбит/сек
Программа кодирования : Lavf51.12.1
Видео
Идентификатор : 0
Формат : MPEG-4 Visual
Профиль формата : [email protected]
Параметр BVOP формата : Нет
Параметр QPel формата : Нет
Параметр GMC формата : Без точки перехода
Параметр матрицы формата : Default (H.263)
Идентификатор кодека : DX50
Идентификатор кодека/Подсказка : DivX 5
Продолжительность : 54 м.
Битрейт : 1199 Кбит/сек
Ширина : 720 пикселей
Высота : 576 пикселей
Соотношение сторон : 5:4
Частота кадров : 25,000 кадров/сек
Стандарт вещания : PAL
Цветовое пространство : YUV
Субдискретизация насыщенности : 4:2:0
Битовая глубина : 8 бит
Тип развёртки : Прогрессивная
Метод сжатия : С потерями
Бит/(Пиксели*Кадры) : 0.116
Размер потока : 463 Мбайт (89%)
Библиотека кодирования : Lavc51.40.4
Аудио
Идентификатор : 1
Формат : MPEG Audio
Версия формата : Version 1
Профиль формата : Layer 3
Режим : Joint stereo
Расширение режима : MS Stereo
Идентификатор кодека : 55
Идентификатор кодека/Подсказка : MP3
Продолжительность : 54 м.
Вид битрейта : Постоянный
Битрейт : 128 Кбит/сек
Каналы : 2 канала
Частота : 48,0 КГц
Метод сжатия : С потерями
Размер потока : 49,5 Мбайт (10%)
Выравнивание : Соединение по промежуткам
Продолжительность промежутка : 24 мс. (0,60 видеокадр)
Время предзагрузки промежутка : 24 мс.
Великий Новгород занимал особое место среди древних русских городов. За право называться столицей Руси он соперничал сначала с Киевом, а потом и с Москвой. Это была богатейшая боярская республика. Торговый оборот этого города не имел себе равных на Руси. Именно через Великий Новгород проходил знаменитый путь "из варяг в греки", связывавший Скандинавию с Византией. Но археологические раскопки и анализ старинных летописей дают основание утверждать, что современный Новгород на реке Волхов никогда не был крупным государственным и торговым центром. А некоторые фрагменты древних текстов противоречат российской истории вообще и истории Великого Новгорода в частности. Так действительно ли город на Волхове - это знаменитый Господин Великий Новгород?..
Общее
Полное имя : [Pirat.ca]_Isnoria.Nauka.ili.Vymysel_24.Serii\06. Господин Великий Новгород кто ты.avi
Формат : AVI
Формат/Информация : Audio Video Interleave
Размер файла : 498 Мбайт
Продолжительность : 52 м.
Общий поток : 1335 Кбит/сек
Библиотека кодирования : VirtualDub build 32706/release
Видео
Идентификатор : 0
Формат : MPEG-4 Visual
Профиль формата : Advanced [email protected]
Параметр BVOP формата : 1
Параметр QPel формата : Да
Параметр GMC формата : Без точки перехода
Параметр матрицы формата : Default (MPEG)
Идентификатор кодека : XVID
Идентификатор кодека/Подсказка : XviD
Продолжительность : 52 м.
Битрейт : 1198 Кбит/сек
Ширина : 704 пикселя
Высота : 416 пикселей
Соотношение сторон : 1,85:1
Частота кадров : 25,000 кадров/сек
Цветовое пространство : YUV
Субдискретизация насыщенности : 4:2:0
Битовая глубина : 8 бит
Тип развёртки : Прогрессивная
Метод сжатия : С потерями
Бит/(Пиксели*Кадры) : 0.164
Размер потока : 446 Мбайт (90%)
Библиотека кодирования : XviD 1.2.1 (UTC 2008-12-04)
Аудио
Идентификатор : 1
Формат : MPEG Audio
Версия формата : Version 1
Профиль формата : Layer 3
Режим : Joint stereo
Расширение режима : MS Stereo
Идентификатор кодека : 55
Идентификатор кодека/Подсказка : MP3
Продолжительность : 52 м.
Вид битрейта : Постоянный
Битрейт : 128 Кбит/сек
Каналы : 2 канала
Частота : 44,1 КГц
Метод сжатия : С потерями
Размер потока : 47,7 Мбайт (10%)
Выравнивание : Разделение по промежуткам
Продолжительность промежутка : 40 мс. (1,00 видеокадр)
Время предзагрузки промежутка : 500 мс.
Библиотека кодирования : LAME3.98.2
Куликовская битва - одно из величайших событий русской истории. Считается, что сражение на Куликовом поле в 1380 году было первым шагом на пути освобождения русских земель от монголо-татарского ига. Но так ли это было на самом деле? Результаты многолетних исследований российских ученых говорят совсем о другом. О том, что не было в то время на Руси никаких завоевателей. Что не было трехсотлетнего ига Золотой Орды. Что на Куликовом поле войска Дмитрия Донского сражались не со степными кочевниками. У них был совсем другой противник. Да и само место, которое считается сегодня Куликовым полем, носит свое название незаслуженно. Об этом красноречиво говорят и археологические находки, и древние русские летописи. Так где же на самом деле происходили известные исторические события? Где же оно, это поле Куликово?..
Общее
Полное имя : [Pirat.ca]_Isnoria.Nauka.ili.Vymysel_24.Serii\07. Куликово поле. Битва за Москву.avi
Формат : AVI
Формат/Информация : Audio Video Interleave
Размер файла : 501 Мбайт
Продолжительность : 52 м.
Общий поток : 1334 Кбит/сек
Библиотека кодирования : VirtualDub build 32706/release
Видео
Идентификатор : 0
Формат : MPEG-4 Visual
Профиль формата : Advanced [email protected]
Параметр BVOP формата : 1
Параметр QPel формата : Да
Параметр GMC формата : Без точки перехода
Параметр матрицы формата : Default (MPEG)
Идентификатор кодека : XVID
Идентификатор кодека/Подсказка : XviD
Продолжительность : 52 м.
Битрейт : 1196 Кбит/сек
Ширина : 704 пикселя
Высота : 416 пикселей
Соотношение сторон : 1,85:1
Частота кадров : 25,000 кадров/сек
Цветовое пространство : YUV
Субдискретизация насыщенности : 4:2:0
Битовая глубина : 8 бит
Тип развёртки : Прогрессивная
Метод сжатия : С потерями
Бит/(Пиксели*Кадры) : 0.163
Размер потока : 449 Мбайт (90%)
Библиотека кодирования : XviD 1.2.1 (UTC 2008-12-04)
Аудио
Идентификатор : 1
Формат : MPEG Audio
Версия формата : Version 1
Профиль формата : Layer 3
Режим : Joint stereo
Расширение режима : MS Stereo
Идентификатор кодека : 55
Идентификатор кодека/Подсказка : MP3
Продолжительность : 52 м.
Вид битрейта : Постоянный
Битрейт : 128 Кбит/сек
Каналы : 2 канала
Частота : 44,1 КГц
Метод сжатия : С потерями
Размер потока : 48,1 Мбайт (10%)
Выравнивание : Разделение по промежуткам
Продолжительность промежутка : 40 мс. (1,00 видеокадр)
Время предзагрузки промежутка : 500 мс.
Библиотека кодирования : LAME3.98.2
Сегодня о монголо-татарском иге на Руси знают практически все. Со школьной скамьи нам рассказывают о порабощении русского народа степными кочевниками, у которых не было ни культуры, ни письменности. Считается, что это вторжение привело к огромным человеческим жертвам среди русского народа, к уничтожению и расхищению его материальных и духовных ценностей. С раннего детства нас учат тому, что в результате иноземного ига экономическое и культурное развитие Руси, по сравнению с Европой, якобы было отброшено на три столетия назад. Нам настойчиво разъясняют, что Русь почти на три века погрязла во мраке нищеты, невежества, жестокости и насилия, попав в экономическую и политическую зависимость к своим поработителям - монгольским Ханам и Правителям Золотой Орды. Это написано в официальных книгах по истории России. Но так ли все было на самом деле? Дошедшие до нас исторические факты и свидетельства говорят совсем о другом...
Общее
Полное имя : [Pirat.ca]_Isnoria.Nauka.ili.Vymysel_24.Serii\08. Русь-Орда.avi
Формат : AVI
Формат/Информация : Audio Video Interleave
Размер файла : 508 Мбайт
Продолжительность : 53 м.
Общий поток : 1340 Кбит/сек
Программа кодирования : Lavf51.12.1
Видео
Идентификатор : 0
Формат : MPEG-4 Visual
Профиль формата : [email protected]
Параметр BVOP формата : Нет
Параметр QPel формата : Нет
Параметр GMC формата : Без точки перехода
Параметр матрицы формата : Default (H.263)
Идентификатор кодека : DX50
Идентификатор кодека/Подсказка : DivX 5
Продолжительность : 53 м.
Битрейт : 1199 Кбит/сек
Ширина : 720 пикселей
Высота : 576 пикселей
Соотношение сторон : 5:4
Частота кадров : 25,000 кадров/сек
Стандарт вещания : PAL
Цветовое пространство : YUV
Субдискретизация насыщенности : 4:2:0
Битовая глубина : 8 бит
Тип развёртки : Прогрессивная
Метод сжатия : С потерями
Бит/(Пиксели*Кадры) : 0.116
Размер потока : 455 Мбайт (89%)
Библиотека кодирования : Lavc51.40.4
Аудио
Идентификатор : 1
Формат : MPEG Audio
Версия формата : Version 1
Профиль формата : Layer 3
Режим : Joint stereo
Расширение режима : MS Stereo
Идентификатор кодека : 55
Идентификатор кодека/Подсказка : MP3
Продолжительность : 53 м.
Вид битрейта : Постоянный
Битрейт : 128 Кбит/сек
Каналы : 2 канала
Частота : 48,0 КГц
Метод сжатия : С потерями
Размер потока : 48,6 Мбайт (10%)
Выравнивание : Соединение по промежуткам
Продолжительность промежутка : 24 мс. (0,60 видеокадр)
Время предзагрузки промежутка : 24 мс.
Сегодня практически любой человек, независимо от вероисповедания, знает евангельскую историю об Иисусе Христе. Время Его земной жизни - это не только эпоха зарождения новой религии. Это новая точка отсчета хронологии человечества. В большинстве стран мира принято вести летоисчисление от Рождества Христова. Никто не сомневается в том, что с момента этого важнейшего для человечества события прошло две тысячи лет. Но почему люди так уверены в это? Авторы фильма не затрагивают вопросы веры и церковные догматы. Задача этого фильма в другом: разобраться о вопросах историко-хронологического характера. Вполне возможно, что общепринятая дата Рождества Христова ошибочна и на календаре сегодня должен быть написан не 2009 год, а совсем другая дата...
Общее
Полное имя : [Pirat.ca]_Isnoria.Nauka.ili.Vymysel_24.Serii\09. В каком веке жил Христос.avi
Формат : AVI
Формат/Информация : Audio Video Interleave
Размер файла : 533 Мбайт
Продолжительность : 55 м.
Общий поток : 1340 Кбит/сек
Программа кодирования : Lavf51.12.1
Видео
Идентификатор : 0
Формат : MPEG-4 Visual
Профиль формата : [email protected]
Параметр BVOP формата : Нет
Параметр QPel формата : Нет
Параметр GMC формата : Без точки перехода
Параметр матрицы формата : Default (H.263)
Идентификатор кодека : DX50
Идентификатор кодека/Подсказка : DivX 5
Продолжительность : 55 м.
Битрейт : 1199 Кбит/сек
Ширина : 720 пикселей
Высота : 576 пикселей
Соотношение сторон : 5:4
Частота кадров : 25,000 кадров/сек
Стандарт вещания : PAL
Цветовое пространство : YUV
Субдискретизация насыщенности : 4:2:0
Битовая глубина : 8 бит
Тип развёртки : Прогрессивная
Метод сжатия : С потерями
Бит/(Пиксели*Кадры) : 0.116
Размер потока : 477 Мбайт (89%)
Библиотека кодирования : Lavc51.40.4
Аудио
Идентификатор : 1
Формат : MPEG Audio
Версия формата : Version 1
Профиль формата : Layer 3
Режим : Joint stereo
Расширение режима : MS Stereo
Идентификатор кодека : 55
Идентификатор кодека/Подсказка : MP3
Продолжительность : 55 м.
Вид битрейта : Постоянный
Битрейт : 128 Кбит/сек
Каналы : 2 канала
Частота : 48,0 КГц
Метод сжатия : С потерями
Размер потока : 50,9 Мбайт (10%)
Выравнивание : Соединение по промежуткам
Продолжительность промежутка : 24 мс. (0,60 видеокадр)
Время предзагрузки промежутка : 24 мс.
Когда-то в древности существовало царство под названием Иудея. Столицей этого царства был город Иерусалим. Современные историки и археологи утверждают, что находилось это царство на юго-западе Азии, там, где сегодня расположено государство Израиль. Столица Израиля тоже носит название Иерусалим. Ученые, которые изучают библейскую историю, утверждают, что древний иудейский Иерусалим и Иерусалим современный - это один и тот же город. Однако не все ученые уверены, что древняя Иудея была расположена именно здесь, у восточного побережья Средиземного моря. Этот фильм посвящен версии авторов теории "Новая хронология" А.Фоменко и Г.Носовского, которые полагают, что иудейское царство было расположено совсем в другом месте, а под названием Иерусалим в Библии описан совсем не тот город, который мы называем Иерусалимом сегодня...
Общее
Полное имя : [Pirat.ca]_Isnoria.Nauka.ili.Vymysel_24.Serii\10. Забытый Иерусалим.avi
Формат : AVI
Формат/Информация : Audio Video Interleave
Размер файла : 511 Мбайт
Продолжительность : 53 м.
Общий поток : 1339 Кбит/сек
Программа кодирования : Lavf51.12.1
Видео
Идентификатор : 0
Формат : MPEG-4 Visual
Профиль формата : [email protected]
Параметр BVOP формата : Нет
Параметр QPel формата : Нет
Параметр GMC формата : Без точки перехода
Параметр матрицы формата : Default (H.263)
Идентификатор кодека : DX50
Идентификатор кодека/Подсказка : DivX 5
Продолжительность : 53 м.
Битрейт : 1198 Кбит/сек
Ширина : 720 пикселей
Высота : 576 пикселей
Соотношение сторон : 5:4
Частота кадров : 25,000 кадров/сек
Стандарт вещания : PAL
Цветовое пространство : YUV
Субдискретизация насыщенности : 4:2:0
Битовая глубина : 8 бит
Тип развёртки : Прогрессивная
Метод сжатия : С потерями
Бит/(Пиксели*Кадры) : 0.116
Размер потока : 457 Мбайт (89%)
Библиотека кодирования : Lavc51.40.4
Аудио
Идентификатор : 1
Формат : MPEG Audio
Версия формата : Version 1
Профиль формата : Layer 3
Режим : Joint stereo
Идентификатор кодека : 55
Идентификатор кодека/Подсказка : MP3
Продолжительность : 53 м.
Вид битрейта : Постоянный
Битрейт : 128 Кбит/сек
Каналы : 2 канала
Частота : 48,0 КГц
Метод сжатия : С потерями
Размер потока : 48,8 Мбайт (10%)
Выравнивание : Соединение по промежуткам
Продолжительность промежутка : 24 мс. (0,60 видеокадр)
Время предзагрузки промежутка : 24 мс.
Уже много веков стоит на Русской земле Москва. О ней написано и рассказано так много, что, кажется, будто об этом древнем городе известно все. Но это совсем не так. К сожалению, наши познания в истории нередко бывают поверхностными. Даже самые яркие страницы прошлого мы читаем не внимательно. А сведения о самых знаковых исторических местах часто берем не из древних документов, а из туристических справочников. Одно из таких мест - это Московский Кремль. Удивительный город-крепость. Твердыня власти, древний духовный центр, символом Москвы и всей России. Величие Кремля поражало во все века. В его истории всегда было что-то недосказанное, какой-то сокровенный смысл и значение. Многие исследователи потратили годы жизни, чтобы разгадать тайны этой старинной крепости. Но оказывается, разгадка была у них под рукой. Надо было просто заглянуть в Библию...
Общее
Полное имя : [Pirat.ca]_Isnoria.Nauka.ili.Vymysel_24.Serii\11. Московский кремль.avi
Формат : AVI
Формат/Информация : Audio Video Interleave
Размер файла : 491 Мбайт
Продолжительность : 51 м.
Общий поток : 1340 Кбит/сек
Программа кодирования : Lavf51.12.1
Видео
Идентификатор : 0
Формат : MPEG-4 Visual
Профиль формата : [email protected]
Параметр BVOP формата : Нет
Параметр QPel формата : Нет
Параметр GMC формата : Без точки перехода
Параметр матрицы формата : Default (H.263)
Идентификатор кодека : DX50
Идентификатор кодека/Подсказка : DivX 5
Продолжительность : 51 м.
Битрейт : 1199 Кбит/сек
Ширина : 720 пикселей
Высота : 576 пикселей
Соотношение сторон : 5:4
Частота кадров : 25,000 кадров/сек
Стандарт вещания : PAL
Цветовое пространство : YUV
Субдискретизация насыщенности : 4:2:0
Битовая глубина : 8 бит
Тип развёртки : Прогрессивная
Метод сжатия : С потерями
Бит/(Пиксели*Кадры) : 0.116
Размер потока : 439 Мбайт (89%)
Библиотека кодирования : Lavc51.40.4
Аудио
Идентификатор : 1
Формат : MPEG Audio
Версия формата : Version 1
Профиль формата : Layer 3
Режим : Joint stereo
Расширение режима : MS Stereo
Идентификатор кодека : 55
Идентификатор кодека/Подсказка : MP3
Продолжительность : 51 м.
Вид битрейта : Постоянный
Битрейт : 128 Кбит/сек
Каналы : 2 канала
Частота : 48,0 КГц
Метод сжатия : С потерями
Размер потока : 46,9 Мбайт (10%)
Выравнивание : Соединение по промежуткам
Продолжительность промежутка : 24 мс. (0,60 видеокадр)
Время предзагрузки промежутка : 24 мс.
Современная историческая наука трещит по швам. Ученые - математики, создавшие новые математические методы исследования исторических документов не оставили камня на камне от общепринятой хронологии исторических событий. А ведь хронология лежит в основе истории, являясь ее "позвоночным столбом". Изменение хронологии автоматически приводит к необходимости пересмотреть все события мировой истории. Оказывается, что многих известных нам по книгам и кино властителей и даже событий древнего мира не существовало вовсе, что они являются фантомами, отображением более поздних средневековых правителей и событий. Реконструкция истории, проведенная учеными на основании новой хронологии мира, устраняет большое количество тайн и загадок в прошлом человечества, находит простые и логические объяснения тем историческим событиям, о которых историки спорят уже не одно столетие. Выясняется также, что история европейских государств искусственно растянута в прошлое, а история Руси намеренно укорочена...
Общее
Полное имя : [Pirat.ca]_Isnoria.Nauka.ili.Vymysel_24.Serii\12. Реконструкция истории.avi
Формат : MPEG-4
Профиль формата : Base Media / Version 2
Идентификатор кодека : mp42
Размер файла : 701 Мбайт
Продолжительность : 57 м.
Режим общего битрейта : Переменный
Общий поток : 1696 Кбит/сек
Дата кодирования : UTC 2010-01-25 23:10:37
Дата пометки : UTC 2010-01-25 23:55:08
Программа кодирования : HandBrake 0.9.4 2009112300
Видео
Идентификатор : 1
Формат : AVC
Формат/Информация : Advanced Video Codec
Профиль формата : [email protected]
Параметр CABAC формата : Да
Параметр ReFrames формата : 2 кадра
Идентификатор кодека : avc1
Идентификатор кодека/Информация : Advanced Video Coding
Продолжительность : 57 м.
Duration_FirstFrame : 40 мс.
Вид битрейта : Переменный
Битрейт : 1560 Кбит/сек
Ширина : 718 пикселей
Высота : 430 пикселей
Соотношение сторон : 16:9
Соотношение сторон в оригинале : 16:9
Режим частоты кадров : Постоянный
Частота кадров : 25,000 кадров/сек
Цветовое пространство : YUV
Субдискретизация насыщенности : 4:2:0
Битовая глубина : 8 бит
Тип развёртки : Прогрессивная
Бит/(Пиксели*Кадры) : 0.202
Размер потока : 645 Мбайт (92%)
Библиотека кодирования : x264 core 79 r1347 5ddd61b
Настройки программы : cabac=1 / ref=2 / deblock=1:0:0 / analyse=0x1:0x111 / me=hex / subme=6 / psy=1 / psy_rd=1.0:0.0 / mixed_ref=0 / me_range=16 / chroma_me=1 / trellis=0 / 8x8dct=0 / cqm=0 / deadzone=21,11 / chroma_qp_offset=-2 / threads=3 / nr=0 / decimate=1 / mbaff=0 / constrained_intra=0 / bframes=2 / b_pyramid=0 / b_adapt=1 / b_bias=0 / direct=1 / wpredb=0 / wpredp=2 / keyint=250 / keyint_min=25 / scenecut=40 / rc_lookahead=40 / rc=2pass / mbtree=1 / bitrate=1560 / ratetol=1.0 / qcomp=0.60 / qpmin=10 / qpmax=51 / qpstep=4 / cplxblur=20.0 / qblur=0.5 / ip_ratio=1.40 / aq=1:1.00
Дата кодирования : UTC 2010-01-25 23:10:37
Дата пометки : UTC 2010-01-25 23:55:08
Основные цвета : BT.601 NTSC
Характеристики трансфера : BT.709
Коэффициенты матрицы : BT.601
Аудио
Идентификатор : 2
Формат : AAC
Формат/Информация : Advanced Audio Codec
Профиль формата : LC
Идентификатор кодека : 40
Продолжительность : 57 м.
Вид битрейта : Переменный
Битрейт : 132 Кбит/сек
Максимальный битрейт : 230 Кбит/сек
Каналы : 2 канала
Расположение каналов : Front: L R
Частота : 48,0 КГц
Метод сжатия : С потерями
Задержка видео : 80 мс.
Размер потока : 54,5 Мбайт (8%)
Язык : Russian
Дата кодирования : UTC 2010-01-25 23:10:37
Дата пометки : UTC 2010-01-25 23:55:08
Меню
Идентификатор : 3
Идентификатор кодека : text
Продолжительность : 57 м.
Дата кодирования : UTC 2010-01-25 23:10:37
Дата пометки : UTC 2010-01-25 23:55:08
Вид битрейта : CBR
Фильм посвящен фальсификации письменной истории. Он расскажет о массовом уничтожении и фальсификации письменных документов в 16-18 веках. О том, что с давних времен люди понимали, как важно знать историю своего народа и сохранять ее для потомков, потому что именно история помогает человеку осознавать свою принадлежность к той или иной нации и культуре. Но на протяжении веков у истории была и другая задача - в любом государстве она стояла на страже политических интересов его правителей, а значит, была в значительной мере субъективна. Несмотря на то, что сегодня есть достаточно примеров искажения мировой истории, многие по-прежнему убеждены, что подделать историю в мировом масштабе невозможно. Причина в общепринятой исторической версии Скалигера-Петавиуса, на которой воспитан каждый из нас...
Общее
Полное имя : [Pirat.ca]_Isnoria.Nauka.ili.Vymysel_24.Serii\13. Фальсификация письменной истории.avi
Формат : AVI
Формат/Информация : Audio Video Interleave
Размер файла : 746 Мбайт
Продолжительность : 53 м.
Общий поток : 1947 Кбит/сек
Библиотека кодирования : VirtualDub build 32842/release
Видео
Идентификатор : 0
Формат : MPEG-4 Visual
Профиль формата : Advanced [email protected]
Параметр BVOP формата : 2
Параметр QPel формата : Нет
Параметр GMC формата : Без точки перехода
Параметр матрицы формата : Default (H.263)
Режим смешивания : Сжатый битовый поток
Идентификатор кодека : XVID
Идентификатор кодека/Подсказка : XviD
Продолжительность : 53 м.
Битрейт : 1745 Кбит/сек
Ширина : 704 пикселя
Высота : 400 пикселей
Соотношение сторон : 16:9
Частота кадров : 25,000 кадров/сек
Цветовое пространство : YUV
Субдискретизация насыщенности : 4:2:0
Битовая глубина : 8 бит
Тип развёртки : Прогрессивная
Метод сжатия : С потерями
Бит/(Пиксели*Кадры) : 0.248
Размер потока : 669 Мбайт (90%)
Библиотека кодирования : XviD 64
Аудио
Идентификатор : 1
Формат : AC-3
Формат/Информация : Audio Coding 3
Расширение режима : CM (complete main)
Параметр Endianness формата : Big
Идентификатор кодека : 2000
Продолжительность : 53 м.
Вид битрейта : Постоянный
Битрейт : 192 Кбит/сек
Каналы : 2 канала
Расположение каналов : Front: L R
Частота : 48,0 КГц
Битовая глубина : 16 бит
Метод сжатия : С потерями
Размер потока : 73,5 Мбайт (10%)
Выравнивание : Соединение по промежуткам
Продолжительность промежутка : 40 мс. (1,00 видеокадр)
Время предзагрузки промежутка : 512 мс.
Фильм о фальшивых предметах искусства и материальной культуры, количество которых настолько велико, что никто не может быть уверен в подлинности сделанного приобретения: ни турист, купивший якобы «древний» египетский папирус, ни коллекционер, нашедший раритет в антикварном магазине, ни искусствовед, приобретший для музея экспонат, прошедший множество экспертиз. К сожалению, сегодня в мире существует множество подделок антиквариата, предметов искусства, старины и материальной культуры. Подделки попадают не только в частные коллекции, но и в залы авторитетнейших музеев мира, они могут оказаться и в лавке торговца араба, и на аукционе Сотбис. Среди фальсификата встречаются не только картины, скульптуры и предметы религиозных культов, но даже архитектурные сооружения, например, храмы. Когда-то большинство таких подделок было создано, чтобы служить обоснованием и подтверждением исторической версии Скалигера-Петавиуса, поэтому по сей день они мешают нам формировать правильное представление об истории человечества...
Общее
Полное имя : [Pirat.ca]_Isnoria.Nauka.ili.Vymysel_24.Serii\14. Поделки и подделки.avi
Формат : AVI
Формат/Информация : Audio Video Interleave
Размер файла : 746 Мбайт
Продолжительность : 53 м.
Общий поток : 1968 Кбит/сек
Библиотека кодирования : VirtualDub build 32842/release
Видео
Идентификатор : 0
Формат : MPEG-4 Visual
Профиль формата : Advanced [email protected]
Параметр BVOP формата : 2
Параметр QPel формата : Нет
Параметр GMC формата : Без точки перехода
Параметр матрицы формата : Default (H.263)
Режим смешивания : Сжатый битовый поток
Идентификатор кодека : XVID
Идентификатор кодека/Подсказка : XviD
Продолжительность : 53 м.
Битрейт : 1766 Кбит/сек
Ширина : 704 пикселя
Высота : 400 пикселей
Соотношение сторон : 16:9
Частота кадров : 25,000 кадров/сек
Цветовое пространство : YUV
Субдискретизация насыщенности : 4:2:0
Битовая глубина : 8 бит
Тип развёртки : Прогрессивная
Метод сжатия : С потерями
Бит/(Пиксели*Кадры) : 0.251
Размер потока : 670 Мбайт (90%)
Библиотека кодирования : XviD 64
Аудио
Идентификатор : 1
Формат : AC-3
Формат/Информация : Audio Coding 3
Расширение режима : CM (complete main)
Параметр Endianness формата : Big
Идентификатор кодека : 2000
Продолжительность : 53 м.
Вид битрейта : Постоянный
Битрейт : 192 Кбит/сек
Каналы : 2 канала
Расположение каналов : Front: L R
Частота : 48,0 КГц
Битовая глубина : 16 бит
Метод сжатия : С потерями
Размер потока : 72,8 Мбайт (10%)
Выравнивание : Соединение по промежуткам
Продолжительность промежутка : 40 мс. (1,00 видеокадр)
Время предзагрузки промежутка : 512 мс.
Легендарные археологические памятники или великие фальшивки? Фильм адресован и заядлым туристам, и тем, кто только собирается отправиться в дальние края. В какую бы страну мы не приехали, нас повсюду окружает история. У любого сооружения, любого предмета, сохранившегося до наших дней, есть своя историческая ценность. И чем древнее эти предметы, тем сильнее они притягивают внимание людей. Поэтому знакомство с историей – процесс очень увлекательный. Однако сегодня хорошо известно, что среди так называемых древностей встречается много подделок. Многие думают, что поддельными могут оказаться монеты, скульптуры, документы. Но не все знают, что подделки есть и среди археологических памятников. Некоторые из них даже объявлены всемирным историческим наследием. Потому что, чем грандиознее подделка, тем легче убедить людей в ее подлинности...
Общее
Полное имя : [Pirat.ca]_Isnoria.Nauka.ili.Vymysel_24.Serii\15. Три великие фальшивки.avi
Формат : AVI
Формат/Информация : Audio Video Interleave
Размер файла : 746 Мбайт
Продолжительность : 1 ч. 1 м.
Общий поток : 1697 Кбит/сек
Библиотека кодирования : VirtualDub build 32842/release
Видео
Идентификатор : 0
Формат : MPEG-4 Visual
Профиль формата : Advanced [email protected]
Параметр BVOP формата : 2
Параметр QPel формата : Нет
Параметр GMC формата : Без точки перехода
Параметр матрицы формата : Default (H.263)
Режим смешивания : Сжатый битовый поток
Идентификатор кодека : XVID
Идентификатор кодека/Подсказка : XviD
Продолжительность : 1 ч. 1 м.
Битрейт : 1495 Кбит/сек
Ширина : 704 пикселя
Высота : 400 пикселей
Соотношение сторон : 16:9
Частота кадров : 25,000 кадров/сек
Цветовое пространство : YUV
Субдискретизация насыщенности : 4:2:0
Битовая глубина : 8 бит
Тип развёртки : Прогрессивная
Метод сжатия : С потерями
Бит/(Пиксели*Кадры) : 0.212
Размер потока : 658 Мбайт (88%)
Библиотека кодирования : XviD 64
Аудио
Идентификатор : 1
Формат : AC-3
Формат/Информация : Audio Coding 3
Расширение режима : CM (complete main)
Параметр Endianness формата : Big
Идентификатор кодека : 2000
Продолжительность : 1 ч. 1 м.
Вид битрейта : Постоянный
Битрейт : 192 Кбит/сек
Каналы : 2 канала
Расположение каналов : Front: L R
Частота : 48,0 КГц
Битовая глубина : 16 бит
Метод сжатия : С потерями
Размер потока : 84,5 Мбайт (11%)
Выравнивание : Соединение по промежуткам
Продолжительность промежутка : 40 мс. (1,00 видеокадр)
Время предзагрузки промежутка : 512 мс.
Эпоха Ивана Грозного – это время расцвета русской Империи, торжества русского оружия и Православной веры. В эту эпоху Русь достигла своего наивысшего развития, а великий русский царь Иван Грозный стал для народа символом борьбы с внешними и внутренними врагами. Однако более двухсот лет нам навязывают совсем иной образ Грозного. В учебниках и романах, на картинах и киноэкранах он предстает как патологически жестокий и психически больной тиран. Этот фильм поможет разобраться зрителю, кто и зачем придумал именно такой образ Грозного и кем был Иван IV на самом деле – кровавым чудовищем или великим самодержцем, который привел Русь на вершину ее могущества...
Общее
Полное имя : [Pirat.ca]_Isnoria.Nauka.ili.Vymysel_24.Serii\16. Иван Грозный.avi
Формат : AVI
Формат/Информация : Audio Video Interleave
Размер файла : 746 Мбайт
Продолжительность : 56 м.
Общий поток : 1864 Кбит/сек
Библиотека кодирования : VirtualDub build 32842/release
Видео
Идентификатор : 0
Формат : MPEG-4 Visual
Профиль формата : Advanced [email protected]
Параметр BVOP формата : 2
Параметр QPel формата : Нет
Параметр GMC формата : Без точки перехода
Параметр матрицы формата : Default (H.263)
Режим смешивания : Сжатый битовый поток
Идентификатор кодека : XVID
Идентификатор кодека/Подсказка : XviD
Продолжительность : 56 м.
Битрейт : 1662 Кбит/сек
Ширина : 704 пикселя
Высота : 400 пикселей
Соотношение сторон : 16:9
Частота кадров : 25,000 кадров/сек
Цветовое пространство : YUV
Субдискретизация насыщенности : 4:2:0
Битовая глубина : 8 бит
Тип развёртки : Прогрессивная
Метод сжатия : С потерями
Бит/(Пиксели*Кадры) : 0.236
Размер потока : 666 Мбайт (89%)
Библиотека кодирования : XviD 64
Аудио
Идентификатор : 1
Формат : AC-3
Формат/Информация : Audio Coding 3
Расширение режима : CM (complete main)
Параметр Endianness формата : Big
Идентификатор кодека : 2000
Продолжительность : 56 м.
Вид битрейта : Постоянный
Битрейт : 192 Кбит/сек
Каналы : 2 канала
Расположение каналов : Front: L R
Частота : 48,0 КГц
Битовая глубина : 16 бит
Метод сжатия : С потерями
Размер потока : 76,9 Мбайт (10%)
Выравнивание : Соединение по промежуткам
Продолжительность промежутка : 40 мс. (1,00 видеокадр)
Время предзагрузки промежутка : 512 мс.
Каковы реальные причины и следствия Смуты на Руси? Из общепринятой версии русской истории, известно, что Смута на Руси началась в 1598 году после смерти царя Федора Иоанновича, у которого, как принято считать, не было детей. Отсутствие прямого наследника и стало причиной многолетней Смуты на Руси. Но существует и другая версия тех далеких событий, которая принадлежит авторам «Новой Хронологии» Анатолию Фоменко и Глебу Носовского. Они полагают, что Смута началась еще в эпоху Ивана Грозного, когда власть в стране временно оказалась в руках клана Захарьиных-Романовых. После своего временного поражения, Романовы продолжили борьбу за власть, и в 1613 году на русский престол все-таки взошел первый Романов. А двух последних правителей рода Рюриков, Бориса Годунова и Лжедмитрия, Романовы объявили самозванцами и свалили на них все беды и преступления, творившиеся в России во времена так называемой Великой Смуты...
Общее
Полное имя : [Pirat.ca]_Isnoria.Nauka.ili.Vymysel_24.Serii\17. Смута.avi
Формат : AVI
Формат/Информация : Audio Video Interleave
Размер файла : 746 Мбайт
Продолжительность : 49 м.
Общий поток : 2107 Кбит/сек
Библиотека кодирования : VirtualDub build 32842/release
Видео
Идентификатор : 0
Формат : MPEG-4 Visual
Профиль формата : Advanced [email protected]
Параметр BVOP формата : 2
Параметр QPel формата : Нет
Параметр GMC формата : Без точки перехода
Параметр матрицы формата : Default (H.263)
Режим смешивания : Сжатый битовый поток
Идентификатор кодека : XVID
Идентификатор кодека/Подсказка : XviD
Продолжительность : 49 м.
Битрейт : 1906 Кбит/сек
Ширина : 704 пикселя
Высота : 400 пикселей
Соотношение сторон : 16:9
Частота кадров : 25,000 кадров/сек
Цветовое пространство : YUV
Субдискретизация насыщенности : 4:2:0
Битовая глубина : 8 бит
Тип развёртки : Прогрессивная
Метод сжатия : С потерями
Бит/(Пиксели*Кадры) : 0.271
Размер потока : 675 Мбайт (90%)
Библиотека кодирования : XviD 64
Аудио
Идентификатор : 1
Формат : AC-3
Формат/Информация : Audio Coding 3
Расширение режима : CM (complete main)
Параметр Endianness формата : Big
Идентификатор кодека : 2000
Продолжительность : 49 м.
Вид битрейта : Постоянный
Битрейт : 192 Кбит/сек
Каналы : 2 канала
Расположение каналов : Front: L R
Частота : 48,0 КГц
Битовая глубина : 16 бит
Метод сжатия : С потерями
Размер потока : 68,0 Мбайт (9%)
Выравнивание : Соединение по промежуткам
Продолжительность промежутка : 40 мс. (1,00 видеокадр)
Время предзагрузки промежутка : 512 мс.
Фильм расскажет о смене правящих династий и ее пагубном влиянии на архитектурное наследие страны. Как известно архитектурные памятники хранят в себе немалую информацию о той эпохе, которой они принадлежат. Иногда убранства дворцов и храмов могут рассказать о времени их создания больше, чем летописи и государственные документы. Этот фильм расскажет о русских архитектурных сооружениях 15-17 веков, в которых была заключена подлинная история старой империи Рюриков. С приходом к власти новой династии Романовых участь многих из этих памятников была решена. После уничтожения своих политических противников новые правители Руси взялись за уничтожение истории и древней культуры русского народа...
Общее
Полное имя : [Pirat.ca]_Isnoria.Nauka.ili.Vymysel_24.Serii\18. Первые Романовы.avi
Формат : AVI
Формат/Информация : Audio Video Interleave
Размер файла : 746 Мбайт
Продолжительность : 56 м.
Общий поток : 1847 Кбит/сек
Библиотека кодирования : VirtualDub build 32842/release
Видео
Идентификатор : 0
Формат : MPEG-4 Visual
Профиль формата : Advanced [email protected]
Параметр BVOP формата : 2
Параметр QPel формата : Нет
Параметр GMC формата : Без точки перехода
Параметр матрицы формата : Default (H.263)
Режим смешивания : Сжатый битовый поток
Идентификатор кодека : XVID
Идентификатор кодека/Подсказка : XviD
Продолжительность : 56 м.
Битрейт : 1645 Кбит/сек
Ширина : 704 пикселя
Высота : 400 пикселей
Соотношение сторон : 16:9
Частота кадров : 25,000 кадров/сек
Цветовое пространство : YUV
Субдискретизация насыщенности : 4:2:0
Битовая глубина : 8 бит
Тип развёртки : Прогрессивная
Метод сжатия : С потерями
Бит/(Пиксели*Кадры) : 0.234
Размер потока : 665 Мбайт (89%)
Библиотека кодирования : XviD 64
Аудио
Идентификатор : 1
Формат : AC-3
Формат/Информация : Audio Coding 3
Расширение режима : CM (complete main)
Параметр Endianness формата : Big
Идентификатор кодека : 2000
Продолжительность : 56 м.
Вид битрейта : Постоянный
Битрейт : 192 Кбит/сек
Каналы : 2 канала
Расположение каналов : Front: L R
Частота : 48,0 КГц
Битовая глубина : 16 бит
Метод сжатия : С потерями
Размер потока : 77,6 Мбайт (10%)
Выравнивание : Соединение по промежуткам
Продолжительность промежутка : 40 мс. (1,00 видеокадр)
Время предзагрузки промежутка : 512 мс.
Фильм о том, как писали русскую историю. У каждой страны есть так называемая официальная история. Есть она и у России. Общепринятую версию русской истории начали сочинять в начале 17 века после восшествия на престол первых Романовых. А в 18 веке эта работа была поставлена на научную основу. Описанием прошлого России занимались и русские историки, и иностранные. У каждого из них было свое отношение и к России, и к ее истории. Каждый давал свою оценку российскому государству и его правителям. Поэтому, читая и сравнивая работы разных авторов, понимаешь, что это не подлинное прошлое России, а лишь разные исторические версии. И в итоге наше знание и понимание русской истории зависит о того, каких авторов мы читаем...
Общее
Полное имя : [Pirat.ca]_Isnoria.Nauka.ili.Vymysel_24.Serii\19. Как писали русскую историю.avi
Формат : AVI
Формат/Информация : Audio Video Interleave
Размер файла : 746 Мбайт
Продолжительность : 57 м.
Общий поток : 1830 Кбит/сек
Библиотека кодирования : VirtualDub build 32842/release
Видео
Идентификатор : 0
Формат : MPEG-4 Visual
Профиль формата : Advanced [email protected]
Параметр BVOP формата : 2
Параметр QPel формата : Нет
Параметр GMC формата : Без точки перехода
Параметр матрицы формата : Default (H.263)
Режим смешивания : Сжатый битовый поток
Идентификатор кодека : XVID
Идентификатор кодека/Подсказка : XviD
Продолжительность : 57 м.
Битрейт : 1629 Кбит/сек
Ширина : 704 пикселя
Высота : 400 пикселей
Соотношение сторон : 16:9
Частота кадров : 25,000 кадров/сек
Цветовое пространство : YUV
Субдискретизация насыщенности : 4:2:0
Битовая глубина : 8 бит
Тип развёртки : Прогрессивная
Метод сжатия : С потерями
Бит/(Пиксели*Кадры) : 0.231
Размер потока : 664 Мбайт (89%)
Библиотека кодирования : XviD 64
Аудио
Идентификатор : 1
Формат : AC-3
Формат/Информация : Audio Coding 3
Расширение режима : CM (complete main)
Параметр Endianness формата : Big
Идентификатор кодека : 2000
Продолжительность : 56 м.
Вид битрейта : Постоянный
Битрейт : 192 Кбит/сек
Каналы : 2 канала
Расположение каналов : Front: L R
Частота : 48,0 КГц
Битовая глубина : 16 бит
Метод сжатия : С потерями
Размер потока : 78,3 Мбайт (10%)
Выравнивание : Соединение по промежуткам
Продолжительность промежутка : 40 мс. (1,00 видеокадр)
Время предзагрузки промежутка : 512 мс.
Радзивиловская летопись. Подлог или оригинал? Каждый, кто знаком с российской историей, знает о существовании Радзивиловской летописи. Известно, что в состав этого древнего литературного памятника входит «Повесть временных лет», в которой описано норманнское происхождение первых русских князей. Много лет мы были вынуждены принимать эту версию на веру, так как полного издания Радзивиловской летописи не существовало, но в конце 20 века летопись была наконец-то издана. Когда исследователи стали изучать это издание, они обнаружили, что в Радзивиловской летописи есть явные следы подлога. Авторы фильма решили проверить результаты исследований российских ученых и провели собственное расследование, подробно изучив подлинник Радзивиловской летописи...
Общее
Полное имя : [Pirat.ca]_Isnoria.Nauka.ili.Vymysel_24.Serii\20. Радзивиловская летопись.avi
Формат : AVI
Формат/Информация : Audio Video Interleave
Размер файла : 746 Мбайт
Продолжительность : 51 м.
Общий поток : 2046 Кбит/сек
Библиотека кодирования : VirtualDub build 32842/release
Видео
Идентификатор : 0
Формат : MPEG-4 Visual
Профиль формата : Advanced [email protected]
Параметр BVOP формата : 2
Параметр QPel формата : Нет
Параметр GMC формата : Без точки перехода
Параметр матрицы формата : Default (H.263)
Режим смешивания : Сжатый битовый поток
Идентификатор кодека : XVID
Идентификатор кодека/Подсказка : XviD
Продолжительность : 51 м.
Битрейт : 1844 Кбит/сек
Ширина : 704 пикселя
Высота : 400 пикселей
Соотношение сторон : 16:9
Частота кадров : 25,000 кадров/сек
Цветовое пространство : YUV
Субдискретизация насыщенности : 4:2:0
Битовая глубина : 8 бит
Тип развёртки : Прогрессивная
Метод сжатия : С потерями
Бит/(Пиксели*Кадры) : 0.262
Размер потока : 673 Мбайт (90%)
Библиотека кодирования : XviD 64
Аудио
Идентификатор : 1
Формат : AC-3
Формат/Информация : Audio Coding 3
Расширение режима : CM (complete main)
Параметр Endianness формата : Big
Идентификатор кодека : 2000
Продолжительность : 50 м.
Вид битрейта : Постоянный
Битрейт : 192 Кбит/сек
Каналы : 2 канала
Расположение каналов : Front: L R
Частота : 48,0 КГц
Битовая глубина : 16 бит
Метод сжатия : С потерями
Размер потока : 70,0 Мбайт (9%)
Выравнивание : Соединение по промежуткам
Продолжительность промежутка : 40 мс. (1,00 видеокадр)
Время предзагрузки промежутка : 512 мс.
Фильм даст ответы на вопросы о существовании мировой империи, о том, что же произошло в действительности: реформация или распад империи. В 16-17 веках, во времена создания традиционной версии истории, ученые-историки придумали много империй, якобы существовавших в прошлом. Однако многочисленные исследования говорят, что в действительности за всю историю человечества существовала только одна мировая империя, русско-ордынская. Сторонники традиционной исторической школы возражают: если бы такая империя действительно существовала, то ее падение было бы глобальным событием своего времени, которое просто не могло не сохраниться на страницах хроник, но о таком событии ни русские, ни европейские документы якобы ничего не сообщают...
Общее
Полное имя : [Pirat.ca]_Isnoria.Nauka.ili.Vymysel_24.Serii\21. Реформация.avi
Формат : AVI
Формат/Информация : Audio Video Interleave
Размер файла : 746 Мбайт
Продолжительность : 54 м.
Общий поток : 1932 Кбит/сек
Библиотека кодирования : VirtualDub build 32842/release
Видео
Идентификатор : 0
Формат : MPEG-4 Visual
Профиль формата : Advanced [email protected]
Параметр BVOP формата : 2
Параметр QPel формата : Нет
Параметр GMC формата : Без точки перехода
Параметр матрицы формата : Default (H.263)
Режим смешивания : Сжатый битовый поток
Идентификатор кодека : XVID
Идентификатор кодека/Подсказка : XviD
Продолжительность : 54 м.
Битрейт : 1731 Кбит/сек
Ширина : 704 пикселя
Высота : 400 пикселей
Соотношение сторон : 16:9
Частота кадров : 25,000 кадров/сек
Цветовое пространство : YUV
Субдискретизация насыщенности : 4:2:0
Битовая глубина : 8 бит
Тип развёртки : Прогрессивная
Метод сжатия : С потерями
Бит/(Пиксели*Кадры) : 0.246
Размер потока : 668 Мбайт (90%)
Библиотека кодирования : XviD 64
Аудио
Идентификатор : 1
Формат : AC-3
Формат/Информация : Audio Coding 3
Расширение режима : CM (complete main)
Параметр Endianness формата : Big
Идентификатор кодека : 2000
Продолжительность : 53 м.
Вид битрейта : Постоянный
Битрейт : 192 Кбит/сек
Каналы : 2 канала
Расположение каналов : Front: L R
Частота : 48,0 КГц
Битовая глубина : 16 бит
Метод сжатия : С потерями
Размер потока : 74,2 Мбайт (10%)
Выравнивание : Соединение по промежуткам
Продолжительность промежутка : 40 мс. (1,00 видеокадр)
Время предзагрузки промежутка : 512 мс.
Фильм расскажет о результатах событий, происходивших в Европе в 16-17 веках во времена распада мировой империи. После череды войн и мятежей, вошедших в историю как Реформация, на территории Русско-Ордынской Империи появилось множество новых независимых государств. Однако подлинную картину этих событий историки скалигеровской школы или неверно трактовали, или умышленно скрыли от последующих поколений. И яркий тому пример - разгром катаров в Западной Европе и войны Романовых со Степаном Разиным, а затем с Емельяном Пугачевым в России...
Общее
Полное имя : [Pirat.ca]_Isnoria.Nauka.ili.Vymysel_24.Serii\22. Солдаты Империи.avi
Формат : AVI
Формат/Информация : Audio Video Interleave
Размер файла : 746 Мбайт
Продолжительность : 59 м.
Общий поток : 1768 Кбит/сек
Библиотека кодирования : VirtualDub build 32842/release
Видео
Идентификатор : 0
Формат : MPEG-4 Visual
Профиль формата : Advanced [email protected]
Параметр BVOP формата : 2
Параметр QPel формата : Нет
Параметр GMC формата : Без точки перехода
Параметр матрицы формата : Default (H.263)
Режим смешивания : Сжатый битовый поток
Идентификатор кодека : XVID
Идентификатор кодека/Подсказка : XviD
Продолжительность : 59 м.
Битрейт : 1567 Кбит/сек
Ширина : 704 пикселя
Высота : 400 пикселей
Соотношение сторон : 16:9
Частота кадров : 25,000 кадров/сек
Цветовое пространство : YUV
Субдискретизация насыщенности : 4:2:0
Битовая глубина : 8 бит
Тип развёртки : Прогрессивная
Метод сжатия : С потерями
Бит/(Пиксели*Кадры) : 0.223
Размер потока : 661 Мбайт (89%)
Библиотека кодирования : XviD 64
Аудио
Идентификатор : 1
Формат : AC-3
Формат/Информация : Audio Coding 3
Расширение режима : CM (complete main)
Параметр Endianness формата : Big
Идентификатор кодека : 2000
Продолжительность : 58 м.
Вид битрейта : Постоянный
Битрейт : 192 Кбит/сек
Каналы : 2 канала
Расположение каналов : Front: L R
Частота : 48,0 КГц
Битовая глубина : 16 бит
Метод сжатия : С потерями
Размер потока : 81,0 Мбайт (11%)
Выравнивание : Соединение по промежуткам
Продолжительность промежутка : 40 мс. (1,00 видеокадр)
Время предзагрузки промежутка : 512 мс.
Этруски – это русские? В фильме ученые раскрывают тайну древних этрусков. Каждый, кто интересуется историей, знает, что в мире до сих пор существует много нерешенных исторических и хронологических загадок. Одна из них – загадка древних этрусков. Считается, что этот народ появился в Италии в 8 веке до нашей эры, то есть еще до основания Рима. Потом он загадочным образом исчез, оставив после себя многочисленные памятники, покрытые непонятными письменами, которые ученые до сих пор не могут расшифровать, поэтому широкое распространение получило выражение «этрусское не читается». Но почему они в этом так уверены?..
Общее
Полное имя : [Pirat.ca]_Isnoria.Nauka.ili.Vymysel_24.Serii\23. Этруски - это русские.avi
Формат : AVI
Формат/Информация : Audio Video Interleave
Размер файла : 746 Мбайт
Продолжительность : 51 м.
Общий поток : 2046 Кбит/сек
Библиотека кодирования : VirtualDub build 32842/release
Видео
Идентификатор : 0
Формат : MPEG-4 Visual
Профиль формата : Advanced [email protected]
Параметр BVOP формата : 2
Параметр QPel формата : Нет
Параметр GMC формата : Без точки перехода
Параметр матрицы формата : Default (H.263)
Режим смешивания : Сжатый битовый поток
Идентификатор кодека : XVID
Идентификатор кодека/Подсказка : XviD
Продолжительность : 51 м.
Битрейт : 1844 Кбит/сек
Ширина : 704 пикселя
Высота : 400 пикселей
Соотношение сторон : 16:9
Частота кадров : 25,000 кадров/сек
Цветовое пространство : YUV
Субдискретизация насыщенности : 4:2:0
Битовая глубина : 8 бит
Тип развёртки : Прогрессивная
Метод сжатия : С потерями
Бит/(Пиксели*Кадры) : 0.262
Размер потока : 673 Мбайт (90%)
Библиотека кодирования : XviD 64
Аудио
Идентификатор : 1
Формат : AC-3
Формат/Информация : Audio Coding 3
Расширение режима : CM (complete main)
Параметр Endianness формата : Big
Идентификатор кодека : 2000
Продолжительность : 50 м.
Вид битрейта : Постоянный
Битрейт : 192 Кбит/сек
Каналы : 2 канала
Расположение каналов : Front: L R
Частота : 48,0 КГц
Битовая глубина : 16 бит
Метод сжатия : С потерями
Размер потока : 70,0 Мбайт (9%)
Выравнивание : Соединение по промежуткам
Продолжительность промежутка : 40 мс. (1,00 видеокадр)
Время предзагрузки промежутка : 512 мс.
Этот фильм - крушение мифа о Римских древностях. Он посвящен нескольким сенсационным открытиям, сделанным российскими и итальянскими учеными. Кто из нас в детстве не зачитывался легендами и мифами древнего мира? И это были не просто занимательные истории для внеклассного чтения. Легендарное прошлое Древней Греции и Древнего Рима занимает немало страниц в школьных учебниках истории. Ведь, начиная с 18 века, знание так называемой античной истории стало мерилом образованности человека...
Общее
Полное имя : [Pirat.ca]_Isnoria.Nauka.ili.Vymysel_24.Serii\24. Символы Древнего Рима.avi
Формат : AVI
Формат/Информация : Audio Video Interleave
Размер файла : 746 Мбайт
Продолжительность : 54 м.
Общий поток : 1932 Кбит/сек
Библиотека кодирования : VirtualDub build 32842/release
Видео
Идентификатор : 0
Формат : MPEG-4 Visual
Профиль формата : Advanced [email protected]
Параметр BVOP формата : 2
Параметр QPel формата : Нет
Параметр GMC формата : Без точки перехода
Параметр матрицы формата : Default (H.263)
Режим смешивания : Сжатый битовый поток
Идентификатор кодека : XVID
Идентификатор кодека/Подсказка : XviD
Продолжительность : 54 м.
Битрейт : 1730 Кбит/сек
Ширина : 704 пикселя
Высота : 400 пикселей
Соотношение сторон : 16:9
Частота кадров : 25,000 кадров/сек
Цветовое пространство : YUV
Субдискретизация насыщенности : 4:2:0
Битовая глубина : 8 бит
Тип развёртки : Прогрессивная
Метод сжатия : С потерями
Бит/(Пиксели*Кадры) : 0.246
Размер потока : 668 Мбайт (90%)
Библиотека кодирования : XviD 64
Аудио
Идентификатор : 1
Формат : AC-3
Формат/Информация : Audio Coding 3
Расширение режима : CM (complete main)
Параметр Endianness формата : Big
Идентификатор кодека : 2000
Продолжительность : 53 м.
Вид битрейта : Постоянный
Битрейт : 192 Кбит/сек
Каналы : 2 канала
Расположение каналов : Front: L R
Частота : 48,0 КГц
Битовая глубина : 16 бит
Метод сжатия : С потерями
Размер потока : 74,2 Мбайт (10%)
Выравнивание : Соединение по промежуткам
Продолжительность промежутка : 40 мс. (1,00 видеокадр)
Время предзагрузки промежутка : 512 мс.
-
Качество видео: DVDRip
Контейнер: AVI
Видео кодек: XviD, DivX
Аудио кодек: MP3, AC3
Видео: MPEG-4 Visual, XviD, DivX, 704х400, 704х416, 718х430, 720x576 (4:3, 16:9), 25,000 кадров/сек, 1700 Кбит/сек, 0.200 бит/пиксель
Аудио: AC3, MP3, 48,0 КГц, 128-192 Кбит/сек, 2 канала
Cубтитры: Отсутствуют
В фильмах цикла «История: наука или вымысел» рассказывается об интереснейших событиях мировой истории, причем трактовка этих событий весьма далека от привычной для массового сознания.
Зрителям фактически предлагается принципиально новый взгляд на важнейшие события истории человечества и совершенно неожиданные, зачастую потрясающие воображение ответы на главные вопросы, которые до сих пор ставила перед ними историческая наука. Ведь многое из того, что некритически воспринято массовым сознанием как нечто очевидное, при внимательном рассмотрении оказывается совсем не таким уж однозначным. А зачастую – просто неверным.
Научные книги и музейные экспозиции, исторические романы и кинофильмы вроде бы убеждают нас, что об истории человечества известно почти все, и практически на любой вопрос пытливого разума у историков обязательно найдется готовый ответ. Однако если мы вглядимся в наше прошлое более пристально, то обнаружим там множество странностей и нестыковок, которые официальная наука нам никак не объясняет.
Почему, скажем, обычно внимательные к историческим деталям живописцы средневековья изображали библейских и античных персонажей как своих современников? И откуда взялось в Древнем Египте оружие из железа? А на каком основании Иван Грозный называл себя прямым потомком римского императора Августа – и современники признавали справедливость таких заявлений?
Да и вообще, на чем построена датировка того или иного события, как доказывается подлинная древность того или иного артефакта?
В многочисленных исторических и археологических справочниках можно найти ответ вроде бы на любой вопрос.
В музеях всего мира хранятся уникальные экспонаты – свидетели ушедших эпох. Все эти предметы педантично сгруппированы и разложены в строгом хронологическом порядке. Но почему ученые пришли к выводу, что, например, вот этот кувшин относится к V в. до н. э., а этот – к VIII в. н. э.? Принято считать, что методы определения возраста древних объектов хорошо проверены, а главное, очень надежны. Но так ли это на самом деле?
Казалось бы, эти и многие другие загадки должны были заставить историков пристальнее вглядеться в наше прошлое.
Но этого до сих пор не случилось, и потому невольно возникает вопрос: а действительно ли мы знаем свою историю? Или, еще точнее, – является ли историей то, что нам под видом нее навязывают?
Разоблачению устоявшихся догматических мифов и подлинной трактовке происходивших в реальности исторических событий и посвящена «Новая хронология», на основе которой и созданы все 12 фильмов научно-популярного цикла «История: наука или вымысел». Основные положения «Новой хронологии» сформулированы академиком РАН, математиком Анатолием Фоменко и несколькими его коллегами (в т. ч. Глебом Носовским).
Вопреки утверждениям скептиков, она построена на четких математических и астрономических расчетах, которые любой непредвзятый человек, интересующийся историей, может без труда перепроверить. Именно благодаря своей стройности и доказательности «Новая хронология» делает историю подлинной науки, выводит ее из разряда собрания невесть кем и как сочиненных легенд и заученных догм. А то и просто фальсификаций, связанных с особенностями текущей политики.
Сомнения в подлинности того, что у нас принято считать «традиционной хронологией», различными учеными высказывались уже давно. Еще в XIX веке базу для теории академика Фоменко заложил в своих трудах выдающийся ученый и революционер Николай Морозов. С середины 1990-х годов «Новая хронология» приобрела популярность в России и стала известна за ее рубежом.
Исследованиями по «Новой хронологии» занимаются несколько независимых групп ученых и энтузиастов в разных странах мира: Йордан Табов (Болгария), Евгений Габович (Германия, администратор журнала «История и хронология»), Уве Топпер (Германия, редактор журнала «История и хронология»), Ливрага Рицци (Германия), Радош Бакич (Венгрия) и многие другие. В поддержку «Новой хронологии», между прочим, высказывался ныне покойный логик и социолог Александр Зиновьев (предисловие «A Global Falsification of History» к книге Фоменко «History: Fiction or Science?»).
Построенный на основе «Новой хронологии» цикл фильмов «История: наука или вымысел» в увлекательной форме рассказывает о подлинной подоплеке таких грандиозных событий, как крестовые походы, строительство пирамид Египта, сосуществования Руси и Орды. Открываются тайны возникновения Иерусалима, Великого Новгорода, Московского Кремля. Производимая таким образом реконструкция истории устраняет большое количество тайн и загадок в прошлом человечества, находит простые и логические объяснения тем историческим событиям, о которых историки спорят уже не одно столетие.
Выясняется также, что история европейских государств искусственно растянута в прошлое, а история Руси – намеренно укорочена. Более того, после знакомства с настоящей Реконструкцией истории становится понятным многое из происходящего в наши дни.
Известно, какой ажиотаж вызвал недавно выход книги Дэна Брауна «Код да Винчи», а потом – и сделанный по ней фильм. Или какую бешеную популярность получили фильмы Мэла Гибсона «Страсти Христовы» и «Апокалипсис». Однако действительные события, которые открывает цикл фильмов «История: наука или вымысел», еще увлекательней, чем любое фэнтези или исторический детектив. С одной только разницей – цикл основан на подлинных и научно доказанных событиях.
Анато́лий Тимофе́евич Фоме́нко (13 марта 1945, Сталино) — советский и российский учёный-математик, специалист по топологии и ряду других направлений, доктор физико-математических наук, действительный член РАН (с 1994 года), РАЕН и МАН ВШ (Международной Академии Наук Высшей Школы). Также художник-график и один из художников-постановщиков мультфильма «Перевал».
Наиболее известен как создатель «Новой хронологии» — направления исследования истории. Профессиональные историки и научные публицисты причисляют «Новую хронологию» к лженауке или к литературному жанру фолк-хистори.
Научная работа и достижения
Окончил механико-математический факультет МГУ в 1967 году. Был учеником В. В. Румянцева и П. К. Рашевского. С 1969 года работает на кафедре дифференциальной геометрии механико-математического факультета МГУ.
В 1970 году защитил кандидатскую диссертацию на тему: «Классификация вполне геодезических многообразий, реализующих нетривиальные циклы в римановых однородных пространствах» (научный руководитель — профессор П. К. Рашевский), а в 1972 году — докторскую диссертацию на тему: «Решение многомерной проблемы Плато на римановых многообразиях». В 1980 году стал профессором кафедры высшей геометрии и топологии, а в 1992 году — заведующим кафедрой дифференциальной геометрии и её приложений. Член Учёного Совета механико-математического факультета МГУ, член Совета Учёных Советов МГУ. Заместитель главного редактора журнала «Вестник МГУ» (серии «математика»).
Анатолий Фоменко является лауреатом премии Московского математического общества (1974), премии по математике Президиума АН СССР (1987), лауреатом Государственной Премии Российской Федерации (в области математики 1996). В 1991 году был избран действительным членом Российской академии естественных наук (РАЕН), в 1993 году был избран действительным членом Академии Наук Высшей Школы, в 1994 году был избран действительным членом (академиком) РАН, в марте 2009 года избран действительным членом Академии технологических наук Российской Федерации (АТН РФ).
Основные направления научных исследований:
Вариационные методы в дифференциальной геометрии и топологии, теория минимальных поверхностей и проблема Плато, гармонические отображения.
Интегрирование гамильтоновых систем дифференциальных уравнений. Интегрируемые уравнения на группах и алгебрах Ли, в математической физике. Теория инвариантов дифференциальных уравнений. Создание новой теории топологической классификации интегрируемых динамических систем.
Компьютерная геометрия, алгоритмические методы в топологии. Компьютеры в трёхмерной топологии и геометрии.
Автор более 250 научных публикаций по математике, в том числе 23 монографий, 8 учебников и учебных пособий. Его математические книги переведены на многие иностранные языки (английский, японский, французский, испанский, итальянский, сербский). Индекс цитируемости Хирша — 9 (на 2010 г.).
У специалистов есть серьёзные претензии к содержательной части некоторых базовых математических работ А. Т. Фоменко. В рецензии Ф. Альмгрена, считающейся разгромной, указывается на ряд грубых ошибок и несоответствие декларируемых достижений реальным полученным результатам.
Новая хронология:
Фоменко — автор и соавтор ряда работ, изданных в рамках проекта «Новая хронология», в которых претендует на создание новых «эмпирико-статистических» методов исследования исторических текстов, распознавания зависимых исторических текстов и датирования событий в приложении к хронологии античной и средневековой истории. Вместе с другими участниками проекта критикует существующую хронологию мировой истории, негативно оценивает добросовестность работы многих учёных, которые занимались историей, археологией, лингвистикой, астрономией, методами датирования и др. Основным соавтором Фоменко является коллега по кафедре Глеб Носовский. Группа «Новая хронология» издала несколько десятков книг на русском языке и несколько — на английском и других европейских языках, где идёт речь о разработанных Фоменко методах исследования, дубликатах, которыми наполнена, по мнению Фоменко, общепринятая история и о возможных реконструкциях «правильной» истории.
Данная теория не признаётся научным сообществом — историками, археологами, лингвистами, математиками, физиками, астрономами и представителями других наук. «Новая хронология» подверглась критике со стороны ряда учёных, в частности, академика РАН археолога Валентина Янина, академика РАН лингвиста Андрея Зализняка, члена Бюро Научного Совета РАН по астрономии Юрия Ефремова.
Теория Фоменко была осуждена на страницах бюллетеня «В защиту науки», издаваемого Комиссией по борьбе с лженаукой при Президиуме РАН. Академик РАН, Нобелевский лауреат по физике Виталий Гинзбург, академики Эдуард Кругляков, Александр Андреев, Николай Платэ, Александр Фурсенко, Евгений Александров, Сергей Новиков квалифицировали «Новую хронологию» как лженауку.
Среди известных общественных деятелей в поддержку «Новой хронологии» выступали Эдуард Лимонов, Александр Зиновьев, Гарри Каспаров. Каспаров впоследствии пересмотрел свою позицию, дав положительную оценку критическому подходу Фоменко к устоявшимся зачастую парадоксальным взглядам историков, хотя и не согласился безоговорочно с выводами его исследований.
В 2004 году за серию книг по «Новой хронологии» соавторам А. Фоменко и Г. Носовскому была присуждена Антипремия «Абзац» в номинации «Почётная безграмота» — за «особо циничные преступления против российской словесности».
Глеб Владимирович Носо́вский (р. 26 января 1958, Москва) — российский математик. Известен, главным образом, как соавтор книг А. Т. Фоменко по «Новой хронологии» — теории, квалифицируемой научным сообществом либо как лженаука, либо как литературный жанр фолк-хистори.
Окончил МИЭМ (1981). Работал в Институте космических исследований РАН (Москва) (1981-1984). Окончил очную аспирантуру Отделения математики Механико-математического факультета МГУ (1987), защитил диссертацию кандидата физико-математических наук в области теории вероятностей и математической статистики («Управление диффузионными процессами на римановом многообразии без края», МГУ, 1988, научный руководитель: профессор Н. В. Крылов). Имеет научные работы по теории случайных процессов, теории оптимизации, стохастических дифференциальных уравнений, компьютерного моделирования стохастических процессов. В 1987—1990 работал ассистентом в МГТУ «Станкин», в 1990—1991 старшим научным сотрудником Международного научно-исследовательского института проблем управления (Москва), в 1992 — старший научный сотрудник Российского открытого университета Москва, в 1993—1995 годах работал приглашенным доцентом (Visiting Accociate Professor) в университете города Айзу, Япония в области компьютерной геометрии. С 1995 года Г. В. Носовский — доцент кафедры дифференциальной геометрии и приложений механико-математического факультета МГУ, работает в лаборатории компьютерных методов.
Новая хронология:
Глеб Носовский активно включился в исследования по «Новой хронологии» в 1981 году.
Неоднократно выступал на математических конференциях с докладами о новых методиках независимого датирования. Г. В. Носовский является постоянным соавтором книг по «новой хронологии» Анатолия Фоменко.
К настоящему времени издано более 90 книг с суммарным официальным тиражом более 700000 экз. Является главным редактором электронного альманаха «Новая Хронология». Им предложены некоторые математизированные методы обработки письменных источников и сделаны попытки передатировать православную пасхалию и Первый Никейский собор.
Download / Скачать

Хотите скачать бесплатно? Зарегистрируйтесь на сайте (ссылка на регистрацию). Pirat.ca - самый быстрый торрент трекер в рунете!

Как скачивать  ·   Что такое торрент  ·   Рейтинг и ограничения



Последний раз редактировалось: Эвакуация (2014-02-10 16:11), всего редактировалось 4 раз(а)

Эвакуация ®

24448

Пост 13-Июн-2013 11:03 (спустя 9 минут)

[Q] 

ЗЫ
Господин модератор,
прошу "поглотить" эту раздачу - Новая Хронология. История: наука или вымысел? [2009 г., Альтернативная история, DVDRip)
aa
[Профиль]  [ЛС] 

kloctuk

3318

Пост 13-Июн-2013 15:43 (спустя 4 часа)

[Q] 

Мдя-э, я думал ещё в в 2002-2005 в пух и прах разбили, те же математики очень четко высказались против теории. И Фоменко уже даже не отвечает на критику почти что...
Но кто любит сказки - пускай смотрят...

_________________
-выстрели еще разок. -зачем? - его душа еще танцует...
[Профиль]  [ЛС] 

Эвакуация ®

24448

Пост 13-Июн-2013 16:20 (спустя 37 минут)

[Q] 

kloctuk,
если бы удалось опровергнуть - Фоменко & Со уже давно бы выгнали из РАН за лженауку и её пропаганду. Но доказательств ошибочности его теории нет (если есть - дайте ссылку на сей труд), и Фоменко, по-прежнему, Академик.
Как-то вот так
bf
[Профиль]  [ЛС] 

kloctuk

3318

Пост 13-Июн-2013 17:01 (спустя 40 минут)

[Q] 

Эвакуация, "Теория Фоменко была осуждена на страницах бюллетеня «В защиту науки», издаваемого Комиссией по борьбе с лженаукой при Президиуме РАН. Академик РАН, Нобелевский лауреат по физике Виталий Гинзбург, академики Эдуард Кругляков, Александр Андреев, Николай Платэ, Александр Фурсенко, Евгений Александров, Сергей Новиков квалифицировали «Новую хронологию» как лженауку."
А энти люди тоже до сих пор в РАН, нико не гонит. А, по теории Фоменко, получается что это у них лженауки.
Тут можно спорить долго, я опять же не претендую на абсолютное знания этого вопроса и личное присутствие во всех веках, но по моему скромному мнение - сказка, не больше... aa

_________________
-выстрели еще разок. -зачем? - его душа еще танцует...
[Профиль]  [ЛС] 

coolerkry

Штурман

192

Пост 13-Июн-2013 18:40 (спустя 1 час 39 минут)

[Q] 

Собственно Фоменко как был членом РАН в отделении математики так и остался. Мало ли кто во что верит?
А вот касательно истории там да, полная фигня получается.
[Профиль]  [ЛС] 

Luzhok

Легенда

Пост 13-Июн-2013 19:37 (спустя 56 минут)

[Q] 

ой, как жалко
хотел скачать, а на винте места нету
будем освобождать...
ну, здравствуйте, Эвакуация
давно не виделись
[Профиль]  [ЛС] 

Эвакуация ®

24448

Пост 13-Июн-2013 21:21 (спустя 1 час 43 минуты)

[Q] 

Luzhok,
дык, я всё в Книгохранилище, да в Книгохранилище...
Если места жалко, то можно и почитать. Ссылка на релиз с книгами - под последним спойлером. Всё равно, в часовом фильме подробно ничего не расскажешь - так, "голопом-по-европам". А в книженциях всё подробно и по полочкам, есть много картинок - видеоряд.
[Профиль]  [ЛС] 

Luzhok

Легенда

Пост 13-Июн-2013 21:27 (спустя 6 минут)

[Q] 

Эвакуация
не, для такого дела мне не жалко места
надо только винт освободить, а то от жадности накачал фильмов, а смотреть некогда
а читать - глазки уже не те
хотя, конечно, тут надо читать
[Профиль]  [ЛС] 

Saevus

Корсар

Пост 17-Июн-2013 17:42 (спустя 3 дня)

[Q] 

о, спасибо. была у меня где-то первая раздача Хронологии, да потерялась... забираю.
[Профиль]  [ЛС] 

Oksika

Флибустьер

Пост 14-Июл-2013 14:35 (спустя 26 дней)

[Q] 

Прикольно, но не более...
[Профиль]  [ЛС] 

okorm

889

Пост 31-Июл-2013 15:28 (спустя 17 дней)

[Q] 

Лови бочку
[Профиль]  [ЛС] 

Dwijok

Шкипер

Пост 10-Фев-2014 17:58 (спустя 6 месяцев 10 дней)

[Q] 

И посмотреть и подумать! Благодарю!
[Профиль]  [ЛС] 

Гатар

Морской Волк

130

Пост 23-Мар-2014 15:40 (спустя 1 месяц 12 дней)

[Q] 

Автору спасибо. Есть над чем подумать.
[Профиль]  [ЛС] 

Pit

Пост 07-Мар-2015 00:46 (спустя 11 месяцев 14 дней)

[Q] 

Спасибо за раздачу. Познавательненько. Спасибо!!!
[Профиль]  [ЛС] 

avn2015

Корсар

Пост 31-Окт-2015 20:30 (спустя 7 месяцев 24 дня)

[Q] 

. Спасибо!!!
[Профиль]  [ЛС] 
Показать сообщения:    
Ответить на тему

Текущее время: Сегодня 07:04

Часовой пояс: GMT + 4



Вы не можете начинать темы
Вы не можете отвечать на сообщения
Вы не можете редактировать свои сообщения
Вы не можете удалять свои сообщения
Вы не можете голосовать в опросах
Вы не можете прикреплять файлы к сообщениям
Вы не можете скачивать файлы

▼ Вниз