ML
     
  Уважаемый Гость!
Вы можете поддержать проект и зарегистрироваться у наших партнеров - онлайн-стратегия MyLands. При регистрации в игре Вы получите код, который сможете активировать после регистрации на pirat.ca и получить 1000 дублонов.

Ваш код:
822959f93c00d34653763d5bbf9ee9a7134af98a
 
     

Трагедия Уэйко / Inside Waco (неизвестен / unkown) [2006 г., Документальный, TVRip] VO

Ответить на тему
 
Автор
Сообщение

Пост 05-Авг-2013 19:00

[Q] 

Агент 47

-Трагедия Уэйко / Inside Waco-- Производство: Великобритания
Жанр: Документальный
Год выпуска: 2006 г.
Продолжительность: 01:40:03
Перевод: Профессиональный (одноголосый, закадровый)
Режиссер: неизвестен / unkown-В ролях: Члены секты "Ветвь Давидова", агенты ФБР, агенты АйТиЭф.-Описание: 19 апреля 1993 года при попытке штурма силами ФБР осажденного с февраля центра Маунт Кармел в Уэйко, штат Техас, где забаррикадировались члены религиозной секты «Ветвь Давидова», в его здании произошел пожар. Погибли 80 человек, в том числе 25 детей. Только 9 человек остались в живых. Несмотря на то, что это событие находилось в центре внимания международных средств массовой информации, оно осталось покрыто тайной. Стремление ФБР прикрыть свои просчеты в Уэйко привели к появлению многочисленных теорий заговора о том, что произошло в стенах центра, и кто виноват в гибели 80 человек. На основании эксклюзивного доступа к материалам по этому делу, программа «Трагедия Уэйко» наконец может рассказать правдивую историю событий, на 51 день приковавших внимание всего мира весной 1993 года.-Качество видео: TVRip
Контейнер: AVI
Видео кодек: XviD
Аудио кодек: AC3
Видео: Xvid 512x384 25fps 555kbps
Аудио: Dolby AC3 48000Hz stereo 256kbps
Cубтитры: отсутствуют
General
Complete name :Трагедия Уэйко.avi
Format : AVI
Format/Info : Audio Video Interleave
File size : 587 MiB
Duration : 1h 40mn
Overall bit rate : 821 Kbps
Writing application : VirtualDubMod 1.5.10.1 (build 2366/release)
Writing library : VirtualDubMod build 2366/release
Video
ID : 0
Format : MPEG-4 Visual
Format profile : Advanced [email protected]
Format settings, BVOP : 1
Format settings, QPel : No
Format settings, GMC : No warppoints
Format settings, Matrix : Custom
Codec ID : XVID
Codec ID/Hint : XviD
Duration : 1h 40mn
Bit rate : 555 Kbps
Width : 512 pixels
Height : 384 pixels
Display aspect ratio : 4:3
Frame rate : 25.000 fps
Color space : YUV
Chroma subsampling : 4:2:0
Bit depth : 8 bits
Scan type : Progressive
Compression mode : Lossy
Bits/(Pixel*Frame) : 0.113
Stream size : 397 MiB (68%)
Writing library : XviD 1.2.0.dev47 (UTC 2006-11-01)
Audio
ID : 1
Format : AC-3
Format/Info : Audio Coding 3
Mode extension : CM (complete main)
Format settings, Endianness : Big
Codec ID : 2000
Duration : 1h 40mn
Bit rate mode : Constant
Bit rate : 256 Kbps
Channel(s) : 2 channels
Channel positions : Front: L R
Sampling rate : 48.0 KHz
Bit depth : 16 bits
Compression mode : Lossy
Delay relative to video : 16ms
Stream size : 183 MiB (31%)
Alignment : Split accross interleaves
Interleave, duration : 40 ms (1.00 video frame)
Interleave, preload duration : 500 ms
В компьютерной игре «Postal 2» осада поместья обыгрывается в последнем эпизоде как миссия главного героя по доставке Дяде Дэйву подарка на день рождения.
Download / Скачать

Хотите скачать бесплатно? Зарегистрируйтесь на сайте (ссылка на регистрацию). Pirat.ca - самый быстрый торрент трекер в рунете!

Как скачивать  ·   Что такое торрент  ·   Рейтинг и ограничения

Показать сообщения:    
Ответить на тему

Текущее время: Сегодня 05:56

Часовой пояс: GMT + 4



Вы не можете начинать темы
Вы не можете отвечать на сообщения
Вы не можете редактировать свои сообщения
Вы не можете удалять свои сообщения
Вы не можете голосовать в опросах
Вы не можете прикреплять файлы к сообщениям
Вы не можете скачивать файлы

▼ Вниз