ML
     
  Уважаемый Гость!
Вы можете поддержать проект и зарегистрироваться у наших партнеров - онлайн-стратегия MyLands. При регистрации в игре Вы получите код, который сможете активировать после регистрации на pirat.ca и получить 1000 дублонов.

Ваш код:
ea554e7ed3eacceeae87a8b30a9de3f086c18a84
 
     

Пиратская бухта: В удалении от клавиатуры / TPB AFK: The Pirate Bay Away from Keyboard (Саймон Клозе / Simon Klose) [2013 г., документальный, HDTV] VO

Ответить на тему
 
Автор
Сообщение

Пост 22-Авг-2013 02:16

[Q] 

GMCJimmy

Легенда

-Пиратская бухта: В удалении от клавиатуры / TPB AFK: The Pirate Bay Away from Keyboard-- Производство: Швеция, Дания, Норвегия, Великобритания, Германия, Нидерланды
Год выпуска: 2013 г.
Жанр: документальный
Продолжительность: 01:22:07
Перевод: Любительский (одноголосый, закадровый) [AlexPro Studio]
Режиссер: Саймон Клозе / Simon Klose-В ролях: Фредерик Нейж, Готфрид Свартхольм, Фредерик Неий-Описание:Документальный фильм о The Pirate Bay и его основателях. Фильм создавался в течение 5-ти лет, он рассказывает о борьбе правообладателей с владельцами этого ресурса и соответствующем судебном процессе по их делу в Швеции.-
Качество видео: HDTV
Контейнер: AVI
Видео кодек: XviD
Аудио кодек: MP3
Видео: 720x400, 1445 kbps, 25,000 fps
Аудио: 192 kbps, 2 ch, 48,0 kHz
Cубтитры: отсутствуют
Формат : AVI
Формат/Информация : Audio Video Interleave
Размер файла : 967 Мбайт
Продолжительность : 1 ч. 22 м.
Общий поток : 1647 Кбит/сек
Программа кодирования : VirtualDubMod 1.5.10.3 | www.virtualdub-fr.org || (build 2550/release)
Библиотека кодирования : VirtualDubMod build 2550/release
Видео
Идентификатор : 0
Формат : MPEG-4 Visual
Профиль формата : Advanced [email protected]
Параметр BVOP формата : 1
Параметр QPel формата : Нет
Параметр GMC формата : Без точки перехода
Параметр матрицы формата : Default (H.263)
Идентификатор кодека : XVID
Идентификатор кодека/Подсказка : XviD
Продолжительность : 1 ч. 22 м.
Битрейт : 1445 Кбит/сек
Ширина : 720 пикселей
Высота : 400 пикселей
Соотношение сторон : 16:9
Частота кадров : 25,000 кадров/сек
Цветовое пространство : YUV
Субдискретизация насыщенности : 4:2:0
Битовая глубина : 8 бит
Тип развёртки : Прогрессивная
Метод сжатия : С потерями
Бит/(Пиксели*Кадры) : 0.201
Размер потока : 849 Мбайт (88%)
Библиотека кодирования : XviD 1.2.1 (UTC 2008-12-04)
Аудио
Идентификатор : 1
Формат : MPEG Audio
Версия формата : Version 1
Профиль формата : Layer 3
Идентификатор кодека : 55
Идентификатор кодека/Подсказка : MP3
Продолжительность : 1 ч. 22 м.
Вид битрейта : Постоянный
Битрейт : 192 Кбит/сек
Каналы : 2 канала
Частота : 48,0 КГц
Метод сжатия : С потерями
Размер потока : 113 Мбайт (12%)
Выравнивание : Соединение по промежуткам
Продолжительность промежутка : 40 мс. (1,00 видеокадр)
Время предзагрузки промежутка : 504 мс.
Библиотека кодирования : LAME3.99r
Настройки программы : -m s -V 4 -q 2 -lowpass 18.6 -b 192
Download / Скачать

Хотите скачать бесплатно? Зарегистрируйтесь на сайте (ссылка на регистрацию). Pirat.ca - самый быстрый торрент трекер в рунете!

Как скачивать  ·   Что такое торрент  ·   Рейтинг и ограничения

civic_85

Корсар

Пост 22-Авг-2013 21:44 (спустя 19 часов)

[Q] 

интересно посмотреть

_________________
[Профиль]  [ЛС] 
Показать сообщения:    
Ответить на тему

Текущее время: Сегодня 12:09

Часовой пояс: GMT + 4



Вы не можете начинать темы
Вы не можете отвечать на сообщения
Вы не можете редактировать свои сообщения
Вы не можете удалять свои сообщения
Вы не можете голосовать в опросах
Вы не можете прикреплять файлы к сообщениям
Вы не можете скачивать файлы

▼ Вниз