ML
     
  Уважаемый Гость!
Вы можете поддержать проект и зарегистрироваться у наших партнеров - онлайн-стратегия MyLands. При регистрации в игре Вы получите код, который сможете активировать после регистрации на pirat.ca и получить 1000 дублонов.

Ваш код:
11f49771fdf057c9d51610e4a0925c3b46ddb655
 
     

Америка: От свободы до фашизма / America: Freedom to Fascism (Аарон Руссо/Aaron Russo) [2006 г., документальный, DVDRip] MVO

Ответить на тему
 
Автор
Сообщение

Пост 16-Сен-2013 16:19

[Q] 

Creed72

-Америка: От свободы до фашизма / America: Freedom to Fascism-- Производство: США
Жанр: документальный
Год выпуска: 2006 г.
Продолжительность: 01:51:21
Мировая премьера: 28 июля 2006
Перевод: Профессиональный (многоголосый, закадровый)
Режиссер: Аарон Руссо/Aaron Russo-В ролях: Аарон Руссо, Джон Тернер, Джо Бэнистер, Шерри Пил Джексон, Чарли Билл, Питер Гиббонс, Дж. Эдвард Гриффин, Боб Шульц, Катрин Остин Фиттс, Фил Харт-Описание: Автор — известный бизнесмен, продюсер, политик рассказывает о том как Америка, некогда основанная на принципах свободы превратилась в полигон на котором отрабатываются принципы управления глобальным обществом без национальностей, прав и свобод. Руссо рассказывает какой путь прошла его родина к тому, чем она стала сегодня, как американцы лишились своих прав и свобод, как они стали невольными спонсорами нового мирового порядка. Автор раскрывает глобальные цели мировой банковской элиты, как непосредственный участник процесса, которому в свое время было предложено стать одним из них. Руссо отказался и сделал этот фильм. Через год после выхода картины его не стало. Многие люди сегодня связывают эти два события.-
Качество видео: DVDRip
Контейнер: AVI
Видео кодек: XviD
Аудио кодек: MP3
Видео: 712x480 (1.48:1), 25 fps, XviD MPEG-4 ~1531 kbps avg, 0.18 bit/pixel
Аудио: 48 kHz, MPEG Layer 3, 2 ch, ~128.00 kbps avg
Cубтитры: отсутствуют
Общее
Формат : AVI
Формат/Информация : Audio Video Interleave
Размер файла : 1,30 Гбайт
Продолжительность : 1 ч. 51 м.
Общий поток : 1669 Кбит/сек
Библиотека кодирования : VirtualDub-MPEG2 build 24586/release
Видео
Идентификатор : 0
Формат : MPEG-4 Visual
Профиль формата : Advanced [email protected]
Параметр BVOP формата : 2
Параметр QPel формата : Нет
Параметр GMC формата : Без точки перехода
Параметр матрицы формата : Default (H.263)
Режим смешивания : Сжатый битовый поток
Идентификатор кодека : XVID
Идентификатор кодека/Подсказка : XviD
Продолжительность : 1 ч. 51 м.
Битрейт : 1532 Кбит/сек
Ширина : 712 пикселей
Высота : 480 пикселей
Соотношение сторон : 3:2
Частота кадров : 25,000 кадров/сек
Цветовое пространство : YUV
Субдискретизация насыщенности : 4:2:0
Битовая глубина : 8 бит
Тип развёртки : Прогрессивная
Метод сжатия : С потерями
Бит/(Пиксели*Кадры) : 0.179
Размер потока : 1,19 Гбайт (92%)
Библиотека кодирования : XviD 1.2.1 (UTC 2008-12-04)
Аудио
Идентификатор : 1
Формат : MPEG Audio
Версия формата : Version 1
Профиль формата : Layer 3
Режим : Joint stereo
Расширение режима : MS Stereo
Идентификатор кодека : 55
Идентификатор кодека/Подсказка : MP3
Продолжительность : 1 ч. 51 м.
Вид битрейта : Постоянный
Битрейт : 128 Кбит/сек
Каналы : 2 канала
Частота : 48,0 КГц
Метод сжатия : С потерями
Размер потока : 102 Мбайт (8%)
Выравнивание : Разделение по промежуткам
Продолжительность промежутка : 40 мс. (1,00 видеокадр)
Время предзагрузки промежутка : 500 мс.
Download / Скачать

Хотите скачать бесплатно? Зарегистрируйтесь на сайте (ссылка на регистрацию). Pirat.ca - самый быстрый торрент трекер в рунете!

Как скачивать  ·   Что такое торрент  ·   Рейтинг и ограничения

canfly

507

Пост 16-Сен-2013 18:32 (спустя 2 часа 12 минут)

[Q] 

Одобрямс! На фоне последних событий-актуально.

_________________
[Профиль]  [ЛС] 

UcrusPazzo

7670

Пост 16-Сен-2013 19:17 (спустя 45 минут)

[Q] 

Какие люди в моем разделе! ))))) Автору респект!!! Лови бочку

_________________
[Профиль]  [ЛС] 

Creed72 ®

9781

Пост 17-Сен-2013 07:33 (спустя 12 часов)

[Q] 

UcrusPazzo, Прювед!))) aa

_________________
Я мзду не беру. Мне за Державу обидно.(с)
[Профиль]  [ЛС] 
Показать сообщения:    
Ответить на тему

Текущее время: Сегодня 03:11

Часовой пояс: GMT + 4



Вы не можете начинать темы
Вы не можете отвечать на сообщения
Вы не можете редактировать свои сообщения
Вы не можете удалять свои сообщения
Вы не можете голосовать в опросах
Вы не можете прикреплять файлы к сообщениям
Вы не можете скачивать файлы

▼ Вниз