ML
     
  Уважаемый Гость!
Вы можете поддержать проект и зарегистрироваться у наших партнеров - онлайн-стратегия MyLands. При регистрации в игре Вы получите код, который сможете активировать после регистрации на pirat.ca и получить 1000 дублонов.

Ваш код:
8b752b428cf60a012c159dcae592cd1392170115
 
     

Сирия в огне / Николай Стариков (2013 г., Документальный, IPTVRip)

Ответить на тему
 
Автор
Сообщение

Пост 18-Сен-2013 03:11

[Q] 

canfly

-Сирия в огне-- Производство: Россия, "РИСИ"
Жанр: Документальный
Год выпуска: 2013 г.
Продолжительность: 00:31:13
Перевод: Не требуется
Оригинальный аудиопоток: русский
Режиссер: Николай Стариков-Описание: Больно видеть сцены убийств, насилия, массовых смертей в результате террористических актов и диверсий среди мирных жителей – детей, женщин, происходящих в наши дни в Сирии. Горько и обидно знать, что зло по отношению к мусульманам творится руками мусульман ради реализации планов империалистов Запада, не имеющих отношение ни к Исламу, ни к какой-либо другой религии.-Качество видео: IPTVRip
Контейнер: AVI
Стандарт разрешения: 480p
Видео кодек: XviD
Аудио кодек: MP3
Видео: 640x480 (1.33:1), 25 fps, XviD build 46 ~1814 kbps avg, 0.24 bit/pixel
Аудио: 48 kHz, MPEG Layer 3, 2 ch, ~128.00 kbps avg
Cубтитры: отсутствуют
Формат : AVI
Формат/Информация : Audio Video Interleave
Размер файла : 437 Мбайт
Продолжительность : 31 м.
Общий поток : 1956 Кбит/сек
Программа кодирования : Lavf54.59.107
Библиотека кодирования : VirtualDub build 32842/release
Видео
Идентификатор : 0
Формат : MPEG-4 Visual
Профиль формата : Advanced [email protected]
Параметр BVOP формата : Нет
Параметр QPel формата : Нет
Параметр GMC формата : Без точки перехода
Параметр матрицы формата : Выборочная
Идентификатор кодека : XVID
Идентификатор кодека/Подсказка : XviD
Продолжительность : 31 м.
Битрейт : 1815 Кбит/сек
Ширина : 640 пикселей
Высота : 480 пикселей
Соотношение сторон : 4:3
Частота кадров : 25,000 кадров/сек
Цветовое пространство : YUV
Субдискретизация насыщенности : 4:2:0
Битовая глубина : 8 бит
Тип развёртки : Прогрессивная
Метод сжатия : С потерями
Бит/(Пиксели*Кадры) : 0.236
Размер потока : 406 Мбайт (93%)
Библиотека кодирования : XviD 1.1.2 (UTC 2006-11-01)
Аудио
Идентификатор : 1
Формат : MPEG Audio
Версия формата : Version 1
Профиль формата : Layer 3
Режим : Joint stereo
Расширение режима : MS Stereo
Идентификатор кодека : 55
Идентификатор кодека/Подсказка : MP3
Продолжительность : 31 м.
Вид битрейта : Постоянный
Битрейт : 128 Кбит/сек
Каналы : 2 канала
Частота : 48,0 КГц
Метод сжатия : С потерями
Размер потока : 28,6 Мбайт (7%)
Выравнивание : Соединение по промежуткам
Продолжительность промежутка : 24 мс. (0,60 видеокадр)
Время предзагрузки промежутка : 504 мс.
Библиотека кодирования : LAME3.99.5
Download / Скачать

Хотите скачать бесплатно? Зарегистрируйтесь на сайте (ссылка на регистрацию). Pirat.ca - самый быстрый торрент трекер в рунете!

Как скачивать  ·   Что такое торрент  ·   Рейтинг и ограничения

civic_85

Корсар

Пост 20-Сен-2013 13:18 (спустя 2 дня 10 часов)

[Q] 

Спасибо за раздачу, документальное кино все правильно отражает, как и есть на самом деле

_________________
[Профиль]  [ЛС] 

canfly ®

506

Пост 20-Сен-2013 13:21 (спустя 3 минуты)

[Q] 

civic_85, aa

_________________
[Профиль]  [ЛС] 
Показать сообщения:    
Ответить на тему

Текущее время: Сегодня 06:24

Часовой пояс: GMT + 4



Вы не можете начинать темы
Вы не можете отвечать на сообщения
Вы не можете редактировать свои сообщения
Вы не можете удалять свои сообщения
Вы не можете голосовать в опросах
Вы не можете прикреплять файлы к сообщениям
Вы не можете скачивать файлы

▼ Вниз