ML
     
  Уважаемый Гость!
Вы можете поддержать проект и зарегистрироваться у наших партнеров - онлайн-стратегия MyLands. При регистрации в игре Вы получите код, который сможете активировать после регистрации на pirat.ca и получить 1000 дублонов.

Ваш код:
e93cd9e43017f251127f220889864c05934e61c6
 
     

Самсара / Samsara (Рон Фрике / Ron Fricke) [2011 г., документальный, видовой, HDRip]

Ответить на тему
 
Автор
Сообщение

Пост 29-Мар-2014 00:36

[Q] 

AnastasWolf

-Самсара / Samsara-- Производство: США
Год выпуска: 2011 г.
Жанр: документальный, видовой
Продолжительность: 01:42:05
Перевод: Не требуется
Режиссер: Рон Фрике / Ron Fricke-В ролях: Жители из 25 стран.-Описание: Документальный фильм о красоте сущего. Во время просмотра картины зритель погрузится в полуторачасовое путешествие по 25-ти странам, расположенным на 5-ти континентах. Авторы документальной ленты — создатели нашумевшего фильма «Барака» (1992). Сам термин «самсара» в переводе с санскрита означает «жизнь», «череда перерождений». Как утверждает режиссёр картины, «Самсара» затрагивает его любимую тему: связь человечества с вечностью. Фильм полностью снят на 70-миллиметровую пленку.-Качество видео: HDRip
Контейнер: AVI
Видео кодек: XviD
Аудио кодек: AC3
Видео: 720x304 (2.35), 1 586 Kbps (0.302 bit/pixel), 23.976 fps
Аудио: 448 Kbps, 6 ch, 48.0 KHz
Cубтитры: отсутствуют
Формат : AVI
Формат/Информация : Audio Video Interleave
Размер файла : 1,46 Гбайт
Продолжительность : 1 ч. 42 м.
Общий поток : 2043 Кбит/сек
Название фильма : Samsara.2011.
Программа кодирования : VirtualDubMod 1.5.10.3 | www.virtualdub-fr.org || (build 2550/release)
Формат оригинала/Имя : Documentary
Видео
Идентификатор : 0
Формат : MPEG-4 Visual
Профиль формата : Advanced [email protected]
Параметр BVOP формата : 2
Параметр QPel формата : Нет
Параметр GMC формата : Без точки перехода
Параметр матрицы формата : Выборочная
Идентификатор кодека : XVID
Идентификатор кодека/Подсказка : XviD
Продолжительность : 1 ч. 42 м.
Битрейт : 1586 Кбит/сек
Ширина : 720 пикселей
Высота : 304 пикселя
Соотношение сторон : 2,35:1
Частота кадров : 23,976 кадра/сек
Цветовое пространство : YUV
Субдискретизация насыщенности : 4:2:0
Битовая глубина : 8 бит
Тип развёртки : Прогрессивная
Метод сжатия : С потерями
Бит/(Пиксели*Кадры) : 0.302
Размер потока : 1,13 Гбайт (78%)
Библиотека кодирования : XviD 64
Аудио
Идентификатор : 1
Формат : AC-3
Формат/Информация : Audio Coding 3
Расширение режима : CM (complete main)
Параметр Endianness формата : Big
Идентификатор кодека : 2000
Продолжительность : 1 ч. 42 м.
Вид битрейта : Постоянный
Битрейт : 448 Кбит/сек
Каналы : 6 каналов
Расположение каналов : Front: L C R, Side: L R, LFE
Частота : 48,0 КГц
Битовая глубина : 16 бит
Метод сжатия : С потерями
Размер потока : 327 Мбайт (22%)
Выравнивание : Разделение по промежуткам
Продолжительность промежутка : 42 мс. (1,00 видеокадр)
Время предзагрузки промежутка : 500 мс.
Download / Скачать

Хотите скачать бесплатно? Зарегистрируйтесь на сайте (ссылка на регистрацию). Pirat.ca - самый быстрый торрент трекер в рунете!

Как скачивать  ·   Что такое торрент  ·   Рейтинг и ограничения



Последний раз редактировалось: AnastasWolf (2014-03-30 04:30), всего редактировалось 2 раз(а)

Дядя Витя

53881

Пост 07-Июн-2014 10:33 (спустя 2 месяца 9 дней)

[Q] 

А я наивный думал, что пишется сансара, а не самсара )
Ну да ладно, режиссёрам виднее... долбаные америкосы ...
Раздающему респект!

_________________
?
[Профиль]  [ЛС] 

AnastasWolf ®

3475

Пост 09-Июн-2014 14:04 (спустя 2 дня 3 часа)

[Q] 

VIT74, не пойму, чем вам опять американцы не угодили? Это же санскрит.

_________________
[Профиль]  [ЛС] 

Дядя Витя

53881

Пост 09-Июн-2014 16:51 (спустя 2 часа 46 минут)

[Q] 

AnastasWolf, я честно не знал что эти 2 слова - одно и тоже.
Но американцы всё-равно деграданты. )
ab

_________________
?
[Профиль]  [ЛС] 

Creed72

9779

Пост 09-Июн-2014 16:57 (спустя 5 минут)

[Q] 

545429Но американцы всё-равно деграданты. )
Однозначно. az

_________________
Я мзду не беру. Мне за Державу обидно.(с)
[Профиль]  [ЛС] 

Дядя Витя

53881

Пост 09-Июн-2014 20:10 (спустя 3 часа)

[Q] 

545431Однозначно.
Creed72, az

_________________
?
[Профиль]  [ЛС] 

AnastasWolf ®

3475

Пост 10-Июн-2014 17:19 (спустя 21 час)

[Q] 

VIT74, а я думала, когда дают ссылку сначала сами её читают. Похоже, не все...

_________________
[Профиль]  [ЛС] 

Дядя Витя

53881

Пост 10-Июн-2014 17:38 (спустя 19 минут)

[Q] 

AnastasWolf, Вы всё ворчите .... сколько можно ?
Кто сказал, что я не читал ссылку ?

_________________
?
[Профиль]  [ЛС] 

AnastasWolf ®

3475

Пост 23-Авг-2014 00:13 (спустя 2 месяца 12 дней)

[Q] 

VIT74, хорошо, что сами разобрались, а то пришлось бы объяснять.

_________________
[Профиль]  [ЛС] 

Дядя Витя

53881

Пост 23-Авг-2014 17:35 (спустя 17 часов)

[Q] 

Всё никак не успокоишься, Мося ? )
Мы же договаривались: всё - расходимся ...
Иди своей дорогой, Мося.

_________________
?
[Профиль]  [ЛС] 

AnastasWolf ®

3475

Пост 25-Авг-2014 15:27 (спустя 1 день 21 час)

[Q] 

VIT74, вы, вероятно, опять что-то перепутали.

_________________
[Профиль]  [ЛС] 
Показать сообщения:    
Ответить на тему

Текущее время: Сегодня 04:26

Часовой пояс: GMT + 4



Вы не можете начинать темы
Вы не можете отвечать на сообщения
Вы не можете редактировать свои сообщения
Вы не можете удалять свои сообщения
Вы не можете голосовать в опросах
Вы не можете прикреплять файлы к сообщениям
Вы не можете скачивать файлы

▼ Вниз