ML
     
  Уважаемый Гость!
Вы можете поддержать проект и зарегистрироваться у наших партнеров - онлайн-стратегия MyLands. При регистрации в игре Вы получите код, который сможете активировать после регистрации на pirat.ca и получить 1000 дублонов.

Ваш код:
fcd618d94adc1456bccbde5047c9cd0930e4ae4d
 
     

Мусор / Trashed (Кандида Брэди / Candida Brady) [2012 г., документальный, DVDRip] VO [Sub (Eng)]

Ответить на тему
 
Автор
Сообщение

Пост 22-Апр-2014 09:44

[Q] 

AnastasWolf

-Мусор / Trashed-«If you think waste is someone else's problem, think again»- Производство: США , Blenheim Films
Жанр: документальный
Год выпуска: 2012 г.
Продолжительность: 01:34:09
Мировая премьера: 22 мая 2012
Российская премьера: 18 июля 2013, «P&I Films»
Дата выхода DVD: 28 ноября 2013, «Мистерия Звука»
Перевод: Профессиональный (одноголосый, закадровый)
Режиссёр: Кандида Брэди / Candida Brady-В ролях: Джереми Айронс-Описание: Вместе с Джереми Айронсом создатели этого документального фильма изучают опасность загрязнения земли, воздуха и воды отходами и влияние этого загрязнения на пищевую цепочку и окружающую среду. Лента раскрывает удивительные факты, касающиеся серьёзной угрозы нашему здоровью. Она построена в форме глобального разговора между Джереми Айронсом и жителями нашей планеты — от Исландии до Индонезии. Среди собеседников — учёные, политики и простые люди, чьё здоровье и образ жизни пострадали от проблемы загрязнения окружающей среды отходами. С точки зрения визуального и эмоционального восприятия лента, связывающая истории из жизни и политические «тревожные звонки», представляется одновременно ужасной и прекрасной. Но завершается она посланием надежды. Фильм показывает, что опасности можно избежать с помощью развития долгосрочных проектов, которые помогут создать больше рабочих мест в области переработки отходов.
- Качество видео: DVDRip
Контейнер: MKV
Видео кодек: MPEG2
Аудио кодек: AC3
Видео: 720x576, 4890 kbps, 25.0 fps, 0.472 bit/pixel
Аудио: 448 kbps, 6 ch, 48 kHz
Cубтитры: английские
Формат субтитров: hardsub (неотключаемые)
Общее
Уникальный идентификатор : 278292303167232760993122339013162029197 (0xD15D25E314A87A9BCE90BF176395D08D)
Полное имя : Мусор_Trashed.2012.DVDRip.[pirat.ca].mkv
Формат : Matroska
Версия формата : Version 2
Размер файла : 3,58 Гбайт
Продолжительность : 1 ч. 34 м.
Режим общего битрейта : Переменный
Общий поток : 5446 Кбит/сек
Дата кодирования : UTC 2013-12-19 08:50:46
Программа кодирования : MakeMKV v1.8.5 win(x86-release)
Библиотека кодирования : libmakemkv v1.8.5 (1.2.0/1.1.0) win(x86-release)
Видео
Идентификатор : 1
Формат : MPEG Video
Версия формата : Version 2
Профиль формата : [email protected]
Параметр BVOP формата : Нет
Параметр матрицы формата : Выборочная
Идентификатор кодека : V_MPEG2
Идентификатор кодека/Информация : MPEG 1 or 2 Video
Продолжительность : 1 ч. 34 м.
Вид битрейта : Переменный
Битрейт : 4890 Кбит/сек
Максимальный битрейт : 8000 Кбит/сек
Ширина : 720 пикселей
Высота : 576 пикселей
Соотношение сторон : 16:9
Режим частоты кадров : Постоянный
Частота кадров : 25,000 кадров/сек
Стандарт вещания : PAL
Цветовое пространство : YUV
Субдискретизация насыщенности : 4:2:0
Битовая глубина : 8 бит
Тип развёртки : Прогрессивная
Метод сжатия : С потерями
Бит/(Пиксели*Кадры) : 0.472
Временной код первого кадра : 00:00:00:00
Оригинал временного кода : Group of pictures header
Размер потока : 3,21 Гбайт (90%)
Язык : English
Default : Нет
Forced : Нет
Аудио
Идентификатор : 2
Формат : AC-3
Формат/Информация : Audio Coding 3
Расширение режима : CM (complete main)
Параметр Endianness формата : Big
Идентификатор кодека : A_AC3
Продолжительность : 1 ч. 34 м.
Вид битрейта : Постоянный
Битрейт : 448 Кбит/сек
Каналы : 6 каналов
Расположение каналов : Front: L C R, Side: L R, LFE
Частота : 48,0 КГц
Битовая глубина : 16 бит
Метод сжатия : С потерями
Размер потока : 302 Мбайт (8%)
Заголовок : 3/2+1
Язык : Russian
Default : Да
Forced : Нет
Меню
00:00:00.000 : en:Chapter 01
00:15:37.880 : en:Chapter 02
00:30:37.440 : en:Chapter 03
00:45:21.840 : en:Chapter 04
01:00:11.920 : en:Chapter 05
01:15:47.760 : en:Chapter 06
Download / Скачать

Хотите скачать бесплатно? Зарегистрируйтесь на сайте (ссылка на регистрацию). Pirat.ca - самый быстрый торрент трекер в рунете!

Как скачивать  ·   Что такое торрент  ·   Рейтинг и ограничения

Показать сообщения:    
Ответить на тему

Текущее время: Сегодня 12:48

Часовой пояс: GMT + 4



Вы не можете начинать темы
Вы не можете отвечать на сообщения
Вы не можете редактировать свои сообщения
Вы не можете удалять свои сообщения
Вы не можете голосовать в опросах
Вы не можете прикреплять файлы к сообщениям
Вы не можете скачивать файлы

▼ Вниз