ML
     
  Уважаемый Гость!
Вы можете поддержать проект и зарегистрироваться у наших партнеров - онлайн-стратегия MyLands. При регистрации в игре Вы получите код, который сможете активировать после регистрации на pirat.ca и получить 1000 дублонов.

Ваш код:
822959f93c00d34653763d5bbf9ee9a7134af98a
 
     

Союз: теневой бизнес удовольствия / The Union: the business behind getting high (Бретт Харви / Brett Harvey) [2007 г., документальный, DVDRip] MVO

Ответить на тему
 
Автор
Сообщение

Пост 25-Апр-2014 23:33

[Q] 

AnastasWolf

-Союз: теневой бизнес удовольствия / The Union: the business behind getting high-- Производство: Канада
Жанр: документальный
Год выпуска: 2007 г.
Продолжительность: 01:43:00
Мировая премьера: 8 июня 2007
Перевод: Любительский (многоголосый, закадровый)
Режиссёр: Бретт Харви / Brett Harvey-В ролях:
Доктор Лестер Гринспун / Dr. Lester Grinspoon - психиатр, почётный профессор медицинской школы Гарварда
Доктор Перри Кендал / Dr. Perry Kendall - работник Министерства Здравоохранения Британской Колумбии
Неил Бойд / Neil Boyd - профессор Школы Криминологии при Университете Саймона Фрэйзера
Джек А. Коль / Jack A. Cole - детектив в полиции Нью-Джерси на протяжении 26 лет
Лери В. Кампбел / Larry W. Campbell - 37ой мэр Ванкувера
Доктор Дерил Плекас / Dr. Darryl Plecas - председатель Школы криминологии Фрэйзер Darryl Plecas
Стефен Ейстон / Stephen Easton - профессор экономики Университета Саймона Фрейзера Stephen Easton
Норм Стемпер / Norm Stamper - бывший шэф департамента полиции Сиэтла
Джефри Мирон / Jeffrey Miron - экономист, преподаватель Гарвардского Университета
-Описание: «Союз» - так участники подпольного бизнеса по выращиванию и распространению марихуаны называют своё сообщество. В фильме рассмотрена краткая история использования марихуаны и наиболее распространённые мифы, связанные с ней. Описаны основные цепочки подпольного бизнеса, поднимаются вопросы о целесообразности запретов на это растение, затрагиваются факты использования марихуаны, скрываемые от общественности. Создатели фильма обращают внимание на всё лицемерие существующих законов в отношении конопли.- Качество видео: DVDRip
Контейнер: AVI
Видео кодек: DivX
Аудио кодек: MP3
Видео: 720x540 (1.33:1), ~ 2982 kbps avg, 25 fps, 0.307 bit/pixel
Аудио: 192 kbps, 2 ch, 48.0 kHz
Cубтитры: отсутствуют
Общее
Полное имя : The Union-The Business Behind Getting High (2006).DVDRip..avi
Формат : AVI
Формат/Информация : Audio Video Interleave
Размер файла : 2,30 Гбайт
Продолжительность : 1 ч. 43 м.
Общий поток : 3185 Кбит/сек
Видео
Идентификатор : 0
Формат : MPEG-4 Visual
Параметр BVOP формата : Нет
Параметр QPel формата : Нет
Параметр GMC формата : Без точки перехода
Параметр матрицы формата : Default (H.263)
Идентификатор кодека : DX50
Идентификатор кодека/Подсказка : DivX 5
Продолжительность : 1 ч. 43 м.
Битрейт : 2983 Кбит/сек
Ширина : 720 пикселей
Высота : 540 пикселей
Соотношение сторон : 4:3
Частота кадров : 25,000 кадров/сек
Цветовое пространство : YUV
Субдискретизация насыщенности : 4:2:0
Битовая глубина : 8 бит
Тип развёртки : Прогрессивная
Метод сжатия : С потерями
Бит/(Пиксели*Кадры) : 0.307
Размер потока : 2,16 Гбайт (94%)
Заголовок : Video
Библиотека кодирования : DivX 6.6.1.4
Аудио
Идентификатор : 1
Формат : MPEG Audio
Версия формата : Version 1
Профиль формата : Layer 3
Режим : Joint stereo
Расширение режима : MS Stereo
Идентификатор кодека : 55
Идентификатор кодека/Подсказка : MP3
Продолжительность : 1 ч. 43 м.
Вид битрейта : Постоянный
Битрейт : 192 Кбит/сек
Каналы : 2 канала
Частота : 48,0 КГц
Метод сжатия : С потерями
Размер потока : 142 Мбайт (6%)
Выравнивание : Разделение по промежуткам
Продолжительность промежутка : 40 мс. (1,00 видеокадр)
Время предзагрузки промежутка : 500 мс.
Заголовок : Audio
Библиотека кодирования : LAME3.96
Download / Скачать

Хотите скачать бесплатно? Зарегистрируйтесь на сайте (ссылка на регистрацию). Pirat.ca - самый быстрый торрент трекер в рунете!

Как скачивать  ·   Что такое торрент  ·   Рейтинг и ограничения

Показать сообщения:    
Ответить на тему

Текущее время: Сегодня 05:58

Часовой пояс: GMT + 4



Вы не можете начинать темы
Вы не можете отвечать на сообщения
Вы не можете редактировать свои сообщения
Вы не можете удалять свои сообщения
Вы не можете голосовать в опросах
Вы не можете прикреплять файлы к сообщениям
Вы не можете скачивать файлы

▼ Вниз