ML
     
  Уважаемый Гость!
Вы можете поддержать проект и зарегистрироваться у наших партнеров - онлайн-стратегия MyLands. При регистрации в игре Вы получите код, который сможете активировать после регистрации на pirat.ca и получить 1000 дублонов.

Ваш код:
5af7de75d3db09b6a37bc8bab71b0e87ccde73d6
 
     

Роковые числа. Нумерология / Роковые числа. Нумерология (Сергей Краус) [2014 г., Документальный, HDTV, 1080i]

Ответить на тему
 
Автор
Сообщение

Пост 01-Май-2014 18:22

[Q] 

Voldemartop

Легенда

-Роковые числа. Нумерология-- Производство: Россия, Ассоциация Наше время
Год выпуска: 2014 г.
Жанр: Документальный
Продолжительность: 00:44:00
Режиссер: Сергей Краус-Описание: Власть цифр. Формула жизни. Цифровая матрица. Мы, сами того не замечая, выстраиваем свою жизнь в соответствии с числами и цифрами. Мы исчисляем отпущенный нам срок годами, днями и часами. Мы двигаемся вперед, отмеряя километры. Мы исследуем мир, выводя формулы и доказывая теоремы. И если мы сможем научиться этому счету, понять формулу, которую предлагает нам сама жизнь, а потом построить на ее основе точный прогноз, быть может, мы сумеем изменить саму судьбу? Ведь, как говорят нумерологи, нет в нашем мире власти сильнее, чем власть цифр.
Из фильма вы узнаете, по какой причине математик Григорий Перельман превратился из общительного человека в отшельника. Услышите, как звучит переложенное на музыку число "пи". Познакомитесь с чемпионом мира по устному счету немцем Гертом Митрингом. И сами в ходе проведенного авторами фильма эксперимента сможете убедиться в том, что опытный нумеролог вполне способен по одной только дате рождения и переведенному в цифровой эквивалент имени рассказать о незнакомом ему человеке практически все!-
Качество видео: HDTV
Контейнер: TS
Стандарт разрешения: 1080i
Видео кодек: AVC
Аудио кодек: MPEG Audio
Видео: 1920х1080, 16:9, 7889 kbps, 25 fps
Аудио: 224 kbps, 2 ch, 48 kHz
Cубтитры: отсутствуют
Общее
Идентификатор : 16 (0x10)
Полное имя : Fatal number_Numerology_HD.ts
Формат : MPEG-TS
Размер файла : 2,65 Гбайт
Продолжительность : 44 м.
Режим общего битрейта : Переменный
Общий поток : 8537 Кбит/сек
Видео
Идентификатор : 1901 (0x76D)
Идентификатор меню : 901 (0x385)
Формат : AVC
Формат/Информация : Advanced Video Codec
Профиль формата : [email protected]
Параметр CABAC формата : Да
Параметр ReFrames формата : 3 кадра
Идентификатор кодека : 27
Продолжительность : 44 м.
Битрейт : 7889 Кбит/сек
Ширина : 1920 пикселей
Высота : 1080 пикселей
Соотношение сторон : 16:9
Частота кадров : 25,000 кадров/сек
Стандарт вещания : PAL
Цветовое пространство : YUV
Субдискретизация насыщенности : 4:2:0
Битовая глубина : 8 бит
Тип развёртки : Чересстрочная
Порядок развёртки : Верхнее поле первое
Бит/(Пиксели*Кадры) : 0.152
Размер потока : 2,45 Гбайт (92%)
Основные цвета : BT.709
Характеристики трансфера : BT.709
Коэффициенты матрицы : BT.709
Аудио
Идентификатор : 2901 (0xB55)
Идентификатор меню : 901 (0x385)
Формат : MPEG Audio
Версия формата : Version 1
Профиль формата : Layer 2
Идентификатор кодека : 4
Продолжительность : 44 м.
Вид битрейта : Постоянный
Битрейт : 224 Кбит/сек
Каналы : 2 канала
Частота : 48,0 КГц
Метод сжатия : С потерями
Задержка видео : 71 мс.
Размер потока : 71,3 Мбайт (3%)
Язык : std
Язык, дополнительно : Clean effects
Download / Скачать

Хотите скачать бесплатно? Зарегистрируйтесь на сайте (ссылка на регистрацию). Pirat.ca - самый быстрый торрент трекер в рунете!

Как скачивать  ·   Что такое торрент  ·   Рейтинг и ограничения



Последний раз редактировалось: Voldemartop (2014-05-02 12:55), всего редактировалось 4 раз(а)

Voldemartop ®

Легенда

1547

Пост 03-Май-2014 03:37 (спустя 1 день 9 часов)

[Q] 

Не стесняйтесь нажать на кнопочку
За ранее Благо Дарю!!!

_________________


МОИ РАЗДАЧИ
[Профиль]  [ЛС] 
Показать сообщения:    
Ответить на тему

Текущее время: Сегодня 14:13

Часовой пояс: GMT + 4



Вы не можете начинать темы
Вы не можете отвечать на сообщения
Вы не можете редактировать свои сообщения
Вы не можете удалять свои сообщения
Вы не можете голосовать в опросах
Вы не можете прикреплять файлы к сообщениям
Вы не можете скачивать файлы

▼ Вниз